(Vocal Jazz) [CD] Maya - She's Something - 2002, FLAC (tracks+.cue), lossless

Страницы:  1

Ответить
Автор
Сообщение

Most1973

Стаж: 8 лет 2 месяца

Сообщений: 36


Most1973 · 22-Фев-15 00:04 (4 года 4 месяца назад, ред. 23-Фев-15 00:32)

Maya / She's Something
Жанр: Vocal Jazz
Носитель: CD
Страна-производитель диска (релиза): Japan
Год издания: 2002
Издатель (лейбл): Forecast Music Co.
Номер по каталогу: DDCZ1755
Страна исполнителя (группы): Japan
Аудиокодек: FLAC (*.flac)
Тип рипа: tracks+.cue
Битрейт аудио: lossless
Продолжительность: 00:45:32
Источник (релизер): рип с CD
Наличие сканов в содержимом раздачи: да
Треклист:
01 Feel Like Making Love
02 In The Still Of The Night
03 Besame Mucho
04 That's No Joke
05 Eu sou um piano (私はピアノ)
06 Isn't She Lovely
07 I've Got A Crush On You
08 Don't Be That Way
09 O pato
10 Se uma estrela aparecer (星に願いを)
Лог создания рипа
X Lossless Decoder version 20141129 (148.1)
XLD extraction logfile from 2015-02-15 18:22:36 +0300
MAYA / She's Something
Used drive : HL-DT-ST DVDRW GX40N (revision RQ00)
Media type : Pressed CD
Ripper mode : XLD Secure Ripper
Disable audio cache : OK for the drive with a cache less than 1375KiB
Make use of C2 pointers : NO
Read offset correction : 6
Max retry count : 20
Gap status : Analyzed, Appended (except HTOA)
TOC of the extracted CD
Track | Start | Length | Start sector | End sector
---------------------------------------------------------
1 | 00:00:00 | 04:01:51 | 0 | 18125
2 | 04:01:51 | 04:17:57 | 18126 | 37457
3 | 08:19:33 | 04:44:16 | 37458 | 58773
4 | 13:03:49 | 05:52:21 | 58774 | 85194
5 | 18:55:70 | 04:25:16 | 85195 | 105085
6 | 23:21:11 | 03:11:11 | 105086 | 119421
7 | 26:32:22 | 06:15:65 | 119422 | 147611
8 | 32:48:12 | 03:33:58 | 147612 | 163644
9 | 36:21:70 | 03:14:28 | 163645 | 178222
10 | 39:36:23 | 05:55:60 | 178223 | 204907
AccurateRip Summary (DiscID: 001110f1-0088cfc7-7f0aac0a)
Track 01 : OK (v2, confidence 2/2)
Track 02 : OK (v2, confidence 2/2)
Track 03 : OK (v2, confidence 2/2)
Track 04 : OK (v2, confidence 2/2)
Track 05 : OK (v2, confidence 2/2)
Track 06 : OK (v2, confidence 2/2)
Track 07 : OK (v2, confidence 2/2)
Track 08 : OK (v2, confidence 2/2)
Track 09 : OK (v2, confidence 2/2)
Track 10 : OK (v2, confidence 2/2)
->All tracks accurately ripped.
All Tracks
Album gain : -7.61 dB
Peak : 1.000000
Statistics
Read error : 0
Jitter error (maybe fixed) : 0
Retry sector count : 0
Damaged sector count : 0
Track 01
Filename : /Users/mos/Music/Maya-She's Something(2002)-FLAC/01 Feel Like Making Love.flac
Pre-gap length : 00:02:00
Track gain : -7.17 dB
Peak : 1.000000
CRC32 hash (test run) : E72D04F1
CRC32 hash : E72D04F1
CRC32 hash (skip zero) : 4C083CED
AccurateRip v1 signature : 48CFE1B3
AccurateRip v2 signature : C96024F2
->Accurately ripped (v2, confidence 2/2)
Statistics
Read error : 0
Jitter error (maybe fixed) : 0
Retry sector count : 0
Damaged sector count : 0
Track 02
Filename : /Users/mos/Music/Maya-She's Something(2002)-FLAC/02 In The Still Of The Night.flac
Pre-gap length : 00:03:06
Track gain : -7.89 dB
Peak : 1.000000
CRC32 hash (test run) : 0D82EB66
CRC32 hash : 0D82EB66
CRC32 hash (skip zero) : AAE01087
AccurateRip v1 signature : 606509C8
AccurateRip v2 signature : 891E5ABA
->Accurately ripped (v2, confidence 2/2)
Statistics
Read error : 0
Jitter error (maybe fixed) : 0
Retry sector count : 0
Damaged sector count : 0
Track 03
Filename : /Users/mos/Music/Maya-She's Something(2002)-FLAC/03 Besame Mucho.flac
Pre-gap length : 00:02:46
Track gain : -5.94 dB
Peak : 1.000000
CRC32 hash (test run) : 0CC75A7D
CRC32 hash : 0CC75A7D
CRC32 hash (skip zero) : DBA8AAC7
AccurateRip v1 signature : 4F29AAE3
AccurateRip v2 signature : B658AB6C
->Accurately ripped (v2, confidence 2/2)
Statistics
Read error : 0
Jitter error (maybe fixed) : 0
Retry sector count : 0
Damaged sector count : 0
Track 04
Filename : /Users/mos/Music/Maya-She's Something(2002)-FLAC/04 That's No Joke.flac
Pre-gap length : 00:02:71
Track gain : -8.21 dB
Peak : 1.000000
CRC32 hash (test run) : AFAABA0E
CRC32 hash : AFAABA0E
CRC32 hash (skip zero) : 4FB20E3A
AccurateRip v1 signature : 0008D1A6
AccurateRip v2 signature : D29C2C77
->Accurately ripped (v2, confidence 2/2)
Statistics
Read error : 0
Jitter error (maybe fixed) : 0
Retry sector count : 0
Damaged sector count : 0
Track 05
Filename : /Users/mos/Music/Maya-She's Something(2002)-FLAC/05 Eu sou um piano (私はピアノ).flac
Pre-gap length : 00:03:13
Track gain : -8.56 dB
Peak : 1.000000
CRC32 hash (test run) : F5EAF771
CRC32 hash : F5EAF771
CRC32 hash (skip zero) : D4A722F1
AccurateRip v1 signature : 363D7D03
AccurateRip v2 signature : BFBAC870
->Accurately ripped (v2, confidence 2/2)
Statistics
Read error : 0
Jitter error (maybe fixed) : 0
Retry sector count : 0
Damaged sector count : 0
Track 06
Filename : /Users/mos/Music/Maya-She's Something(2002)-FLAC/06 Isn't She Lovely.flac
Pre-gap length : 00:02:17
Track gain : -7.94 dB
Peak : 1.000000
CRC32 hash (test run) : FC66AC31
CRC32 hash : FC66AC31
CRC32 hash (skip zero) : D39A3CA6
AccurateRip v1 signature : 9B286933
AccurateRip v2 signature : 11ECA798
->Accurately ripped (v2, confidence 2/2)
Statistics
Read error : 0
Jitter error (maybe fixed) : 0
Retry sector count : 0
Damaged sector count : 0
Track 07
Filename : /Users/mos/Music/Maya-She's Something(2002)-FLAC/07 I've Got A Crush On You.flac
Pre-gap length : 00:02:60
Track gain : -6.34 dB
Peak : 0.904266
CRC32 hash (test run) : 5B65BFDC
CRC32 hash : 5B65BFDC
CRC32 hash (skip zero) : D987E4DF
AccurateRip v1 signature : C007B440
AccurateRip v2 signature : 687B07E3
->Accurately ripped (v2, confidence 2/2)
Statistics
Read error : 0
Jitter error (maybe fixed) : 0
Retry sector count : 0
Damaged sector count : 0
Track 08
Filename : /Users/mos/Music/Maya-She's Something(2002)-FLAC/08 Don't Be That Way.flac
Pre-gap length : 00:02:73
Track gain : -8.53 dB
Peak : 0.999969
CRC32 hash (test run) : 2F069242
CRC32 hash : 2F069242
CRC32 hash (skip zero) : 5565447B
AccurateRip v1 signature : 126DFE63
AccurateRip v2 signature : A2BC946E
->Accurately ripped (v2, confidence 2/2)
Statistics
Read error : 0
Jitter error (maybe fixed) : 0
Retry sector count : 0
Damaged sector count : 0
Track 09
Filename : /Users/mos/Music/Maya-She's Something(2002)-FLAC/09 O pato.flac
Pre-gap length : 00:02:21
Track gain : -7.28 dB
Peak : 1.000000
CRC32 hash (test run) : C17C46D5
CRC32 hash : C17C46D5
CRC32 hash (skip zero) : D4F190FE
AccurateRip v1 signature : FAC213C8
AccurateRip v2 signature : A3677A48
->Accurately ripped (v2, confidence 2/2)
Statistics
Read error : 0
Jitter error (maybe fixed) : 0
Retry sector count : 0
Damaged sector count : 0
Track 10
Filename : /Users/mos/Music/Maya-She's Something(2002)-FLAC/10 Se uma estrela aparecer (星に願いを).flac
Pre-gap length : 00:02:58
Track gain : -2.57 dB
Peak : 0.999908
CRC32 hash (test run) : F0DAA570
CRC32 hash : F0DAA570
CRC32 hash (skip zero) : DE4389E3
AccurateRip v1 signature : A6920ADA
AccurateRip v2 signature : 7035DBFE
->Accurately ripped (v2, confidence 2/2)
Statistics
Read error : 0
Jitter error (maybe fixed) : 0
Retry sector count : 0
Damaged sector count : 0
No errors occurred
End of status report
Содержание индексной карты (.CUE)
TITLE "She's Something"
PERFORMER "MAYA"
CATALOG 4543034027927
REM GENRE "Jazz"
REM DATE "2011"
REM DISCNUMBER 1
REM TOTALDISCS 1
REM DISCID 7F0AAC0A
REM REPLAYGAIN_ALBUM_GAIN -7.61 dB
REM REPLAYGAIN_ALBUM_PEAK 1.000000
FILE "01 Feel Like Making Love.flac" WAVE
TRACK 01 AUDIO
TITLE "Feel Like Making Love"
PERFORMER "MAYA"
ISRC JPJ901105640
REM REPLAYGAIN_TRACK_GAIN -7.17 dB
REM REPLAYGAIN_TRACK_PEAK 1.000000
INDEX 01 00:00:00
TRACK 02 AUDIO
TITLE "In The Still Of The Night"
PERFORMER "MAYA"
ISRC JPJ901105650
REM REPLAYGAIN_TRACK_GAIN -7.89 dB
REM REPLAYGAIN_TRACK_PEAK 1.000000
INDEX 00 03:58:45
FILE "02 In The Still Of The Night.flac" WAVE
INDEX 01 00:00:00
TRACK 03 AUDIO
TITLE "Besame Mucho"
PERFORMER "MAYA"
ISRC JPJ901105660
REM REPLAYGAIN_TRACK_GAIN -5.94 dB
REM REPLAYGAIN_TRACK_PEAK 1.000000
INDEX 00 04:15:11
FILE "03 Besame Mucho.flac" WAVE
INDEX 01 00:00:00
TRACK 04 AUDIO
TITLE "That's No Joke"
PERFORMER "MAYA"
ISRC JPJ901105670
REM REPLAYGAIN_TRACK_GAIN -8.21 dB
REM REPLAYGAIN_TRACK_PEAK 1.000000
INDEX 00 04:41:20
FILE "04 That's No Joke.flac" WAVE
INDEX 01 00:00:00
TRACK 05 AUDIO
TITLE "Eu sou um piano (私はピアノ)"
PERFORMER "MAYA"
ISRC JPJ901105680
REM REPLAYGAIN_TRACK_GAIN -8.56 dB
REM REPLAYGAIN_TRACK_PEAK 1.000000
INDEX 00 05:49:08
FILE "05 Eu sou um piano (私はピアノ).flac" WAVE
INDEX 01 00:00:00
TRACK 06 AUDIO
TITLE "Isn't She Lovely"
PERFORMER "MAYA"
ISRC JPJ901105690
REM REPLAYGAIN_TRACK_GAIN -7.94 dB
REM REPLAYGAIN_TRACK_PEAK 1.000000
INDEX 00 04:22:74
FILE "06 Isn't She Lovely.flac" WAVE
INDEX 01 00:00:00
TRACK 07 AUDIO
TITLE "I've Got A Crush On You"
PERFORMER "MAYA"
ISRC JPJ901105700
REM REPLAYGAIN_TRACK_GAIN -6.34 dB
REM REPLAYGAIN_TRACK_PEAK 0.904266
INDEX 00 03:08:26
FILE "07 I've Got A Crush On You.flac" WAVE
INDEX 01 00:00:00
TRACK 08 AUDIO
TITLE "Don't Be That Way"
PERFORMER "MAYA"
ISRC JPJ901105710
REM REPLAYGAIN_TRACK_GAIN -8.53 dB
REM REPLAYGAIN_TRACK_PEAK 0.999969
INDEX 00 06:12:67
FILE "08 Don't Be That Way.flac" WAVE
INDEX 01 00:00:00
TRACK 09 AUDIO
TITLE "O pato"
PERFORMER "MAYA"
ISRC JPJ901105720
REM REPLAYGAIN_TRACK_GAIN -7.28 dB
REM REPLAYGAIN_TRACK_PEAK 1.000000
INDEX 00 03:31:37
FILE "09 O pato.flac" WAVE
INDEX 01 00:00:00
TRACK 10 AUDIO
TITLE "Se uma estrela aparecer (星に願いを)"
PERFORMER "MAYA"
ISRC JPJ901105730
REM REPLAYGAIN_TRACK_GAIN -2.57 dB
REM REPLAYGAIN_TRACK_PEAK 0.999908
INDEX 00 03:11:45
FILE "10 Se uma estrela aparecer (星に願いを).flac" WAVE
INDEX 01 00:00:00
Download
Для скачивания .torrent файлов необходима регистрация
Сайт не распространяет и не хранит электронные версии произведений, а лишь предоставляет доступ к создаваемому пользователями каталогу ссылок на торрент-файлы, которые содержат только списки хеш-сумм
[Профиль]  [ЛС] 

Most1973

Стаж: 8 лет 2 месяца

Сообщений: 36


Most1973 · 23-Фев-15 00:35 (спустя 1 день)

Исправил ошибки.
Торрент перезалил.
[Профиль]  [ЛС] 
 
Ответить
Loading...
Error