(Vocal Jazz) [CD] Maya - Maya Style - 2014, FLAC (tracks+.cue), lossless

Страницы:  1

Ответить
Автор
Сообщение

Most1973

Стаж: 8 лет 2 месяца

Сообщений: 36


Most1973 · 26-Янв-15 23:44 (4 года 5 месяцев назад)

Maya / Maya Style
Жанр: Vocal Jazz
Носитель: CD
Страна-производитель диска (релиза): Japan
Год издания: 2014
Издатель (лейбл): Terasima Records
Номер по каталогу: TYR-1042
Страна исполнителя (группы): Japan
Аудиокодек: FLAC (*.flac)
Тип рипа: tracks+.cue
Битрейт аудио: lossless
Источник (релизер): рип с CD
Наличие сканов в содержимом раздачи: нет
Треклист:
01 Maya - Abrazame
02 Maya - Dance Me to the End of Love
03 Maya - Fanm Matinik Dou
04 Maya - Take Me in Your Arms
05 Maya - Ser Y No Ser
06 Maya - When You're Smiling
07 Maya - Black Coffee
08 Maya - Dynamite
09 Maya - Temptation
10 Maya - Sabor a Mi
11 Maya - Manbo
12 Maya - St. Louis Blues
13 Maya - Quizas Quizas Quizas
14 Maya - Ochi Chernye
15 Maya - I'll Be Seeing You
16 Maya - Antonio's Song
17 Maya - Have Yourself a Merry Little Christmas
Лог создания рипа
X Lossless Decoder version 20141129 (148.1)
XLD extraction logfile from 2015-01-26 19:44:52 +0300
MAYA / Maya Style
Used drive : HL-DT-ST DVDRW GX40N (revision RQ00)
Media type : Pressed CD
Ripper mode : XLD Secure Ripper
Disable audio cache : OK for the drive with a cache less than 1375KiB
Make use of C2 pointers : NO
Read offset correction : 6
Max retry count : 20
Gap status : Analyzed, Appended (except HTOA)
TOC of the extracted CD
Track | Start | Length | Start sector | End sector
---------------------------------------------------------
1 | 00:00:00 | 04:18:39 | 0 | 19388
2 | 04:18:39 | 04:05:00 | 19389 | 37763
3 | 08:23:39 | 03:33:35 | 37764 | 53773
4 | 11:56:74 | 04:38:71 | 53774 | 74694
5 | 16:35:70 | 03:26:54 | 74695 | 90198
6 | 20:02:49 | 02:25:52 | 90199 | 101125
7 | 22:28:26 | 07:01:29 | 101126 | 132729
8 | 29:29:55 | 02:44:66 | 132730 | 145095
9 | 32:14:46 | 03:44:73 | 145096 | 161968
10 | 35:59:44 | 03:43:42 | 161969 | 178735
11 | 39:43:11 | 03:14:30 | 178736 | 193315
12 | 42:57:41 | 07:57:20 | 193316 | 229110
13 | 50:54:61 | 03:45:29 | 229111 | 246014
14 | 54:40:15 | 03:14:20 | 246015 | 260584
15 | 57:54:35 | 03:13:15 | 260585 | 275074
16 | 61:07:50 | 04:46:50 | 275075 | 296574
17 | 65:54:25 | 05:10:16 | 296575 | 319840
AccurateRip Summary (DiscID: 002af7fc-02222e6d-0410a811)
Track 01 : OK (v2, confidence 2/2)
Track 02 : OK (v2, confidence 2/2)
Track 03 : OK (v2, confidence 2/2)
Track 04 : OK (v2, confidence 2/2)
Track 05 : OK (v2, confidence 2/2)
Track 06 : OK (v2, confidence 2/2)
Track 07 : OK (v2, confidence 2/2)
Track 08 : OK (v2, confidence 2/2)
Track 09 : OK (v2, confidence 2/2)
Track 10 : OK (v2, confidence 2/2)
Track 11 : OK (v2, confidence 2/2)
Track 12 : OK (v2, confidence 2/2)
Track 13 : OK (v2, confidence 2/2)
Track 14 : OK (v2, confidence 2/2)
Track 15 : OK (v2, confidence 2/2)
Track 16 : OK (v2, confidence 2/2)
Track 17 : OK (v2, confidence 2/2)
->All tracks accurately ripped.
All Tracks
Album gain : -8.38 dB
Peak : 0.988586
Statistics
Read error : 0
Jitter error (maybe fixed) : 0
Retry sector count : 0
Damaged sector count : 0
Track 01
Filename : /Users/mos/Music/Maya-Maya Style(2014)-FLAC/01 Maya - Abrazame.flac
Pre-gap length : 00:02:00
Track gain : -7.77 dB
Peak : 0.988525
CRC32 hash (test run) : B9345B39
CRC32 hash : B9345B39
CRC32 hash (skip zero) : AA2B0A75
AccurateRip v1 signature : E559B970
AccurateRip v2 signature : 11614CDA
->Accurately ripped (v2, confidence 2/2)
Statistics
Read error : 0
Jitter error (maybe fixed) : 0
Retry sector count : 0
Damaged sector count : 0
Track 02
Filename : /Users/mos/Music/Maya-Maya Style(2014)-FLAC/02 Maya - Dance Me to the End of Love.flac
Pre-gap length : 00:03:00
Track gain : -8.70 dB
Peak : 0.980835
CRC32 hash (test run) : 03001497
CRC32 hash : 03001497
CRC32 hash (skip zero) : 3A24A0E4
AccurateRip v1 signature : B1499076
AccurateRip v2 signature : 2539CF7D
->Accurately ripped (v2, confidence 2/2)
Statistics
Read error : 0
Jitter error (maybe fixed) : 0
Retry sector count : 0
Damaged sector count : 0
Track 03
Filename : /Users/mos/Music/Maya-Maya Style(2014)-FLAC/03 Maya - Fanm Matinik Dou.flac
Pre-gap length : 00:03:00
Track gain : -8.28 dB
Peak : 0.988586
CRC32 hash (test run) : 384439A2
CRC32 hash : 384439A2
CRC32 hash (skip zero) : 82E35A92
AccurateRip v1 signature : E2087573
AccurateRip v2 signature : B0C800C8
->Accurately ripped (v2, confidence 2/2)
Statistics
Read error : 0
Jitter error (maybe fixed) : 0
Retry sector count : 0
Damaged sector count : 0
Track 04
Filename : /Users/mos/Music/Maya-Maya Style(2014)-FLAC/04 Maya - Take Me in Your Arms.flac
Pre-gap length : 00:03:00
Track gain : -5.00 dB
Peak : 0.988556
CRC32 hash (test run) : 94136FEF
CRC32 hash : 94136FEF
CRC32 hash (skip zero) : 9533485D
AccurateRip v1 signature : 9979F820
AccurateRip v2 signature : 4E263A7B
->Accurately ripped (v2, confidence 2/2)
Statistics
Read error : 0
Jitter error (maybe fixed) : 0
Retry sector count : 0
Damaged sector count : 0
Track 05
Filename : /Users/mos/Music/Maya-Maya Style(2014)-FLAC/05 Maya - Ser Y No Ser.flac
Pre-gap length : 00:03:00
Track gain : -8.28 dB
Peak : 0.988586
CRC32 hash (test run) : FAA71C56
CRC32 hash : FAA71C56
CRC32 hash (skip zero) : A7A0DF28
AccurateRip v1 signature : D1EFD106
AccurateRip v2 signature : E61CD72E
->Accurately ripped (v2, confidence 2/2)
Statistics
Read error : 0
Jitter error (maybe fixed) : 0
Retry sector count : 0
Damaged sector count : 0
Track 06
Filename : /Users/mos/Music/Maya-Maya Style(2014)-FLAC/06 Maya - When You're Smiling.flac
Pre-gap length : 00:03:00
Track gain : -8.82 dB
Peak : 0.988586
CRC32 hash (test run) : F54F465A
CRC32 hash : F54F465A
CRC32 hash (skip zero) : D9416B4C
AccurateRip v1 signature : C42F8CC7
AccurateRip v2 signature : 49E9B9E1
->Accurately ripped (v2, confidence 2/2)
Statistics
Read error : 0
Jitter error (maybe fixed) : 0
Retry sector count : 0
Damaged sector count : 0
Track 07
Filename : /Users/mos/Music/Maya-Maya Style(2014)-FLAC/07 Maya - Black Coffee.flac
Pre-gap length : 00:03:00
Track gain : -6.41 dB
Peak : 0.988586
CRC32 hash (test run) : AD0A2A52
CRC32 hash : AD0A2A52
CRC32 hash (skip zero) : 5ADA1AEC
AccurateRip v1 signature : D530FEAE
AccurateRip v2 signature : 739BBBCB
->Accurately ripped (v2, confidence 2/2)
Statistics
Read error : 0
Jitter error (maybe fixed) : 0
Retry sector count : 0
Damaged sector count : 0
Track 08
Filename : /Users/mos/Music/Maya-Maya Style(2014)-FLAC/08 Maya - Dynamite.flac
Pre-gap length : 00:03:00
Track gain : -9.00 dB
Peak : 0.988586
CRC32 hash (test run) : 71497412
CRC32 hash : 71497412
CRC32 hash (skip zero) : 3A9D6D47
AccurateRip v1 signature : A6A3F2F6
AccurateRip v2 signature : FBDCD984
->Accurately ripped (v2, confidence 2/2)
Statistics
Read error : 0
Jitter error (maybe fixed) : 0
Retry sector count : 0
Damaged sector count : 0
Track 09
Filename : /Users/mos/Music/Maya-Maya Style(2014)-FLAC/09 Maya - Temptation.flac
Pre-gap length : 00:03:00
Track gain : -8.28 dB
Peak : 0.988586
CRC32 hash (test run) : ACC3201A
CRC32 hash : ACC3201A
CRC32 hash (skip zero) : D42B3AF4
AccurateRip v1 signature : E818BA56
AccurateRip v2 signature : B5B73984
->Accurately ripped (v2, confidence 2/2)
Statistics
Read error : 0
Jitter error (maybe fixed) : 0
Retry sector count : 0
Damaged sector count : 0
Track 10
Filename : /Users/mos/Music/Maya-Maya Style(2014)-FLAC/10 Maya - Sabor a Mi.flac
Pre-gap length : 00:03:00
Track gain : -8.31 dB
Peak : 0.988556
CRC32 hash (test run) : 3FD18C6F
CRC32 hash : 3FD18C6F
CRC32 hash (skip zero) : 3381D918
AccurateRip v1 signature : 3A1FF64E
AccurateRip v2 signature : 8196E4FB
->Accurately ripped (v2, confidence 2/2)
Statistics
Read error : 0
Jitter error (maybe fixed) : 0
Retry sector count : 0
Damaged sector count : 0
Track 11
Filename : /Users/mos/Music/Maya-Maya Style(2014)-FLAC/11 Maya - Manbo.flac
Pre-gap length : 00:03:00
Track gain : -10.17 dB
Peak : 0.977356
CRC32 hash (test run) : 80AEA4B2
CRC32 hash : 80AEA4B2
CRC32 hash (skip zero) : 1C346BD4
AccurateRip v1 signature : B0ED3A77
AccurateRip v2 signature : CE309C0E
->Accurately ripped (v2, confidence 2/2)
Statistics
Read error : 0
Jitter error (maybe fixed) : 0
Retry sector count : 0
Damaged sector count : 0
Track 12
Filename : /Users/mos/Music/Maya-Maya Style(2014)-FLAC/12 Maya - St. Louis Blues.flac
Pre-gap length : 00:03:00
Track gain : -9.11 dB
Peak : 0.950684
CRC32 hash (test run) : 861EB5F9
CRC32 hash : 861EB5F9
CRC32 hash (skip zero) : 299EBB9B
AccurateRip v1 signature : 72153355
AccurateRip v2 signature : 295D28F3
->Accurately ripped (v2, confidence 2/2)
Statistics
Read error : 0
Jitter error (maybe fixed) : 0
Retry sector count : 0
Damaged sector count : 0
Track 13
Filename : /Users/mos/Music/Maya-Maya Style(2014)-FLAC/13 Maya - Quizas Quizas Quizas.flac
Pre-gap length : 00:03:00
Track gain : -9.74 dB
Peak : 0.977356
CRC32 hash (test run) : A3B9D647
CRC32 hash : A3B9D647
CRC32 hash (skip zero) : E0AD00D3
AccurateRip v1 signature : 816E41FE
AccurateRip v2 signature : C6AA2448
->Accurately ripped (v2, confidence 2/2)
Statistics
Read error : 0
Jitter error (maybe fixed) : 0
Retry sector count : 0
Damaged sector count : 0
Track 14
Filename : /Users/mos/Music/Maya-Maya Style(2014)-FLAC/14 Maya - Ochi Chernye.flac
Pre-gap length : 00:03:00
Track gain : -6.88 dB
Peak : 0.988586
CRC32 hash (test run) : 935103C7
CRC32 hash : 935103C7
CRC32 hash (skip zero) : 1078640D
AccurateRip v1 signature : F9FF5BEA
AccurateRip v2 signature : 20A45ED3
->Accurately ripped (v2, confidence 2/2)
Statistics
Read error : 0
Jitter error (maybe fixed) : 0
Retry sector count : 0
Damaged sector count : 0
Track 15
Filename : /Users/mos/Music/Maya-Maya Style(2014)-FLAC/15 Maya - I'll Be Seeing You.flac
Pre-gap length : 00:03:00
Track gain : -4.91 dB
Peak : 0.988586
CRC32 hash (test run) : EFF2EC71
CRC32 hash : EFF2EC71
CRC32 hash (skip zero) : 9067C125
AccurateRip v1 signature : A9AEB3C1
AccurateRip v2 signature : D8572E27
->Accurately ripped (v2, confidence 2/2)
Statistics
Read error : 0
Jitter error (maybe fixed) : 0
Retry sector count : 0
Damaged sector count : 0
Track 16
Filename : /Users/mos/Music/Maya-Maya Style(2014)-FLAC/16 Maya - Antonio's Song.flac
Pre-gap length : 00:03:00
Track gain : -7.87 dB
Peak : 0.988586
CRC32 hash (test run) : 9DD49701
CRC32 hash : 9DD49701
CRC32 hash (skip zero) : 27694DA4
AccurateRip v1 signature : 8E89B262
AccurateRip v2 signature : E60D2920
->Accurately ripped (v2, confidence 2/2)
Statistics
Read error : 0
Jitter error (maybe fixed) : 0
Retry sector count : 0
Damaged sector count : 0
Track 17
Filename : /Users/mos/Music/Maya-Maya Style(2014)-FLAC/17 Maya - Have Yourself a Merry Little Christmas.flac
Pre-gap length : 00:03:00
Track gain : -5.19 dB
Peak : 0.988586
CRC32 hash (test run) : D99A5C93
CRC32 hash : D99A5C93
CRC32 hash (skip zero) : E16951CC
AccurateRip v1 signature : 82ECA8D8
AccurateRip v2 signature : E10710FD
->Accurately ripped (v2, confidence 2/2)
Statistics
Read error : 0
Jitter error (maybe fixed) : 0
Retry sector count : 0
Damaged sector count : 0
No errors occurred
End of status report
Содержание индексной карты (.CUE)
TITLE "Maya Style"
PERFORMER "MAYA"
CATALOG 4988044011847
REM GENRE "Jazz"
REM DATE "2014"
REM DISCNUMBER 1
REM TOTALDISCS 1
REM DISCID 0410A811
REM REPLAYGAIN_ALBUM_GAIN -8.38 dB
REM REPLAYGAIN_ALBUM_PEAK 0.988586
REM COMPILATION TRUE
FILE "01 Maya - Abrazame.flac" WAVE
TRACK 01 AUDIO
TITLE "Abrazame"
PERFORMER "Maya"
FLAGS DCP
REM REPLAYGAIN_TRACK_GAIN -7.77 dB
REM REPLAYGAIN_TRACK_PEAK 0.988525
INDEX 01 00:00:00
TRACK 02 AUDIO
TITLE "Dance Me to the End of Love"
PERFORMER "Maya"
FLAGS DCP
REM REPLAYGAIN_TRACK_GAIN -8.70 dB
REM REPLAYGAIN_TRACK_PEAK 0.980835
INDEX 00 04:15:39
FILE "02 Maya - Dance Me to the End of Love.flac" WAVE
INDEX 01 00:00:00
TRACK 03 AUDIO
TITLE "Fanm Matinik Dou"
PERFORMER "Maya"
FLAGS DCP
REM REPLAYGAIN_TRACK_GAIN -8.28 dB
REM REPLAYGAIN_TRACK_PEAK 0.988586
INDEX 00 04:02:00
FILE "03 Maya - Fanm Matinik Dou.flac" WAVE
INDEX 01 00:00:00
TRACK 04 AUDIO
TITLE "Take Me in Your Arms"
PERFORMER "Maya"
FLAGS DCP
REM REPLAYGAIN_TRACK_GAIN -5.00 dB
REM REPLAYGAIN_TRACK_PEAK 0.988556
INDEX 00 03:30:35
FILE "04 Maya - Take Me in Your Arms.flac" WAVE
INDEX 01 00:00:00
TRACK 05 AUDIO
TITLE "Ser Y No Ser"
PERFORMER "Maya"
FLAGS DCP
REM REPLAYGAIN_TRACK_GAIN -8.28 dB
REM REPLAYGAIN_TRACK_PEAK 0.988586
INDEX 00 04:35:71
FILE "05 Maya - Ser Y No Ser.flac" WAVE
INDEX 01 00:00:00
TRACK 06 AUDIO
TITLE "When You're Smiling"
PERFORMER "Maya"
FLAGS DCP
REM REPLAYGAIN_TRACK_GAIN -8.82 dB
REM REPLAYGAIN_TRACK_PEAK 0.988586
INDEX 00 03:23:54
FILE "06 Maya - When You're Smiling.flac" WAVE
INDEX 01 00:00:00
TRACK 07 AUDIO
TITLE "Black Coffee"
PERFORMER "Maya"
FLAGS DCP
REM REPLAYGAIN_TRACK_GAIN -6.41 dB
REM REPLAYGAIN_TRACK_PEAK 0.988586
INDEX 00 02:22:52
FILE "07 Maya - Black Coffee.flac" WAVE
INDEX 01 00:00:00
TRACK 08 AUDIO
TITLE "Dynamite"
PERFORMER "Maya"
FLAGS DCP
REM REPLAYGAIN_TRACK_GAIN -9.00 dB
REM REPLAYGAIN_TRACK_PEAK 0.988586
INDEX 00 06:58:29
FILE "08 Maya - Dynamite.flac" WAVE
INDEX 01 00:00:00
TRACK 09 AUDIO
TITLE "Temptation"
PERFORMER "Maya"
FLAGS DCP
REM REPLAYGAIN_TRACK_GAIN -8.28 dB
REM REPLAYGAIN_TRACK_PEAK 0.988586
INDEX 00 02:41:66
FILE "09 Maya - Temptation.flac" WAVE
INDEX 01 00:00:00
TRACK 10 AUDIO
TITLE "Sabor a Mi"
PERFORMER "Maya"
FLAGS DCP
REM REPLAYGAIN_TRACK_GAIN -8.31 dB
REM REPLAYGAIN_TRACK_PEAK 0.988556
INDEX 00 03:41:73
FILE "10 Maya - Sabor a Mi.flac" WAVE
INDEX 01 00:00:00
TRACK 11 AUDIO
TITLE "Manbo"
PERFORMER "Maya"
FLAGS DCP
REM REPLAYGAIN_TRACK_GAIN -10.17 dB
REM REPLAYGAIN_TRACK_PEAK 0.977356
INDEX 00 03:40:42
FILE "11 Maya - Manbo.flac" WAVE
INDEX 01 00:00:00
TRACK 12 AUDIO
TITLE "St. Louis Blues"
PERFORMER "Maya"
FLAGS DCP
REM REPLAYGAIN_TRACK_GAIN -9.11 dB
REM REPLAYGAIN_TRACK_PEAK 0.950684
INDEX 00 03:11:30
FILE "12 Maya - St. Louis Blues.flac" WAVE
INDEX 01 00:00:00
TRACK 13 AUDIO
TITLE "Quizas Quizas Quizas"
PERFORMER "Maya"
FLAGS DCP
REM REPLAYGAIN_TRACK_GAIN -9.74 dB
REM REPLAYGAIN_TRACK_PEAK 0.977356
INDEX 00 07:54:20
FILE "13 Maya - Quizas Quizas Quizas.flac" WAVE
INDEX 01 00:00:00
TRACK 14 AUDIO
TITLE "Ochi Chernye"
PERFORMER "Maya"
FLAGS DCP
REM REPLAYGAIN_TRACK_GAIN -6.88 dB
REM REPLAYGAIN_TRACK_PEAK 0.988586
INDEX 00 03:42:29
FILE "14 Maya - Ochi Chernye.flac" WAVE
INDEX 01 00:00:00
TRACK 15 AUDIO
TITLE "I'll Be Seeing You"
PERFORMER "Maya"
FLAGS DCP
REM REPLAYGAIN_TRACK_GAIN -4.91 dB
REM REPLAYGAIN_TRACK_PEAK 0.988586
INDEX 00 03:11:20
FILE "15 Maya - I'll Be Seeing You.flac" WAVE
INDEX 01 00:00:00
TRACK 16 AUDIO
TITLE "Antonio's Song"
PERFORMER "Maya"
FLAGS DCP
REM REPLAYGAIN_TRACK_GAIN -7.87 dB
REM REPLAYGAIN_TRACK_PEAK 0.988586
INDEX 00 03:10:15
FILE "16 Maya - Antonio's Song.flac" WAVE
INDEX 01 00:00:00
TRACK 17 AUDIO
TITLE "Have Yourself a Merry Little Christmas"
PERFORMER "Maya"
FLAGS DCP
REM REPLAYGAIN_TRACK_GAIN -5.19 dB
REM REPLAYGAIN_TRACK_PEAK 0.988586
INDEX 00 04:43:50
FILE "17 Maya - Have Yourself a Merry Little Christmas.flac" WAVE
INDEX 01 00:00:00
Download
Для скачивания .torrent файлов необходима регистрация
Сайт не распространяет и не хранит электронные версии произведений, а лишь предоставляет доступ к создаваемому пользователями каталогу ссылок на торрент-файлы, которые содержат только списки хеш-сумм
[Профиль]  [ЛС] 

Darkman

Top Seed 05* 640r

Стаж: 10 лет 11 месяцев

Сообщений: 10205

Darkman · 27-Янв-15 02:13 (спустя 2 часа 29 мин.)

paneugene
Вот эта тоже не плохая .....
https://rutrckr.com/forum/viewtopic.php?t=4044011
[Профиль]  [ЛС] 

paneugene

Top Seed 06* 1280r

Стаж: 10 лет

Сообщений: 4116

paneugene · 27-Янв-15 02:41 (спустя 27 мин.)

Darkman
скрытый текст
Да на трекере их навалом можно отыскать, даже по одному джазовому разделу:
https://rutrckr.com/forum/viewtopic.php?t=4619377
https://rutrckr.com/forum/viewtopic.php?t=977750
https://rutrckr.com/forum/viewtopic.php?t=4160059
А вообще, вот! Наслаждайся!
[Профиль]  [ЛС] 

MOCTPECT

Стаж: 5 лет 7 месяцев

Сообщений: 147

MOCTPECT · 30-Апр-15 22:23 (спустя 3 месяца 3 дня)

Так себе пивичка. Своего оркестра явно не стоит.
[Профиль]  [ЛС] 
 
Ответить
Loading...
Error