(Vocal Jazz) Ella Fitzgerald — Ella Fitzgerald Sings The Duke Ellington Song Book (3 CD) (1957) — 1988, FLAC (image+.cue), lossless

Страницы:  1

Ответить
Автор
Сообщение

papa1954

Top Seed 09* 10240r

Стаж: 12 лет 4 месяца

Сообщений: 16944

papa1954 · 14-Сен-11 04:14 (7 лет 10 месяцев назад, ред. 14-Сен-11 04:15)

Ella Fitzgerald Sings The Duke Ellington Song Book (3 CD)

Жанр: Vocal Jazz
Год издания диска: 1988
Лейбл: Verve
Номер по каталогу: 837 035-2
Аудиокодек: FLAC (*.flac)
Тип рипа: image+.cue
Битрейт аудио: lossless
Продолжительность: 59:44 / 67:36 / 45:27
Риппер: bINkI
Наличие сканов в содержимом раздачи: да
 
 
Disc 1
Продолжительность: 59:44
Треклист:
01. Rockin' In Rhythm (5:20)
02. Drop Me Off In Harlem (3:51)
03. Day Dream (4:00)
04. Caravan (3:55)
05. Take The 'A' Train (6:42)
06. I Ain't Got Nothing But The Blues (4:42)
07. Clementine (2:41)
08. I Didn't Know About You (4:14)
09. I'm Beginning To See The Light (3:28)
10. Lost In Meditation (3:28)
11. Perdido (6:16)
12. Cottontail (3:27)
13. Do Nothing Till You Hear From Me (7:40)
Лог создания рипа
Exact Audio Copy V0.99 prebeta 5 from 4. May 2009
EAC extraction logfile from 12. August 2011, 20:30
Ella Fitzgerald / Ella Fitzgerald Sings the Duke Ellington Song Book (Cd 1)
Used drive : HL-DT-STDVD-RAM GH22NP20 Adapter: 1 ID: 1
Read mode : Secure
Utilize accurate stream : Yes
Defeat audio cache : Yes
Make use of C2 pointers : No
Read offset correction : 102
Overread into Lead-In and Lead-Out : No
Fill up missing offset samples with silence : Yes
Delete leading and trailing silent blocks : No
Null samples used in CRC calculations : Yes
Used interface : Native Win32 interface for Win NT & 2000
Used output format : Internal WAV Routines
Sample format : 44.100 Hz; 16 Bit; Stereo
TOC of the extracted CD
Track | Start | Length | Start sector | End sector
---------------------------------------------------------
1 | 0:00.33 | 5:20.30 | 33 | 24062
2 | 5:20.63 | 3:50.62 | 24063 | 41374
3 | 9:11.50 | 4:00.28 | 41375 | 59402
4 | 13:12.03 | 3:55.35 | 59403 | 77062
5 | 17:07.38 | 6:42.25 | 77063 | 107237
6 | 23:49.63 | 4:41.57 | 107238 | 128369
7 | 28:31.45 | 2:40.63 | 128370 | 140432
8 | 31:12.33 | 4:13.62 | 140433 | 159469
9 | 35:26.20 | 3:28.25 | 159470 | 175094
10 | 38:54.45 | 3:27.50 | 175095 | 190669
11 | 42:22.20 | 6:15.38 | 190670 | 218832
12 | 48:37.58 | 3:26.57 | 218833 | 234339
13 | 52:04.40 | 7:40.05 | 234340 | 268844
Range status and errors
Selected range
Filename C:\Documents and Settings\Proprietario\Desktop\Ella Fitzgerald - Ella Fitzgerald Sings the Duke Ellington Song Book (disc 1).wav
Peak level 97.7 %
Range quality 100.0 %
Test CRC 3D5523DC
Copy CRC 3D5523DC
Copy OK
No errors occurred
AccurateRip summary
Track 1 accurately ripped (confidence 9) [24249B47]
Track 2 accurately ripped (confidence 9) [0F5B4521]
Track 3 accurately ripped (confidence 9) [53E6A327]
Track 4 accurately ripped (confidence 9) [0C33B61F]
Track 5 accurately ripped (confidence 9) [0BF534CF]
Track 6 accurately ripped (confidence 9) [F161E4AD]
Track 7 accurately ripped (confidence 9) [DF3F84D1]
Track 8 accurately ripped (confidence 9) [E8991664]
Track 9 accurately ripped (confidence 9) [AAF8A9F0]
Track 10 accurately ripped (confidence 8) [1460C382]
Track 11 accurately ripped (confidence 9) [5682BC34]
Track 12 accurately ripped (confidence 9) [767DDC86]
Track 13 accurately ripped (confidence 9) [9E38FA72]
All tracks accurately ripped
End of status report
Содержание индексной карты (.CUE)
REM GENRE Jazz Vocal
REM DATE 1957
REM DISCID AA0E000D
REM COMMENT ExactAudioCopy v0.99pb5
CATALOG 0042283703629
PERFORMER "Ella Fitzgerald"
TITLE "Ella Fitzgerald Sings The Duke Ellington Song Book (disc 1)"
FILE "Ella Fitzgerald - Sings The Duke Ellington Song Book (disc 1).flac" WAVE
TRACK 01 AUDIO
TITLE "Rockin' In Rhythm"
ISRC USF095725450
INDEX 00 00:00:00
INDEX 01 00:00:33
TRACK 02 AUDIO
TITLE "Drop Me Off In Harlem"
ISRC USF095725460
INDEX 00 05:18:20
INDEX 01 05:20:63
TRACK 03 AUDIO
TITLE "Day Dream"
ISRC USF095725470
INDEX 00 09:09:33
INDEX 01 09:11:50
TRACK 04 AUDIO
TITLE "Caravan"
ISRC USF095725480
INDEX 00 13:09:20
INDEX 01 13:12:03
TRACK 05 AUDIO
TITLE "Take The 'A' Train"
ISRC USF095725100
INDEX 00 17:05:33
INDEX 01 17:07:38
TRACK 06 AUDIO
TITLE "I Ain't Got Nothing But The Blues"
ISRC USF095725490
INDEX 00 23:47:08
INDEX 01 23:49:63
TRACK 07 AUDIO
TITLE "Clementine"
ISRC USF095725500
INDEX 00 28:29:70
INDEX 01 28:31:45
TRACK 08 AUDIO
TITLE "I Didn't Know About You"
ISRC USF095725510
INDEX 00 31:09:58
INDEX 01 31:12:33
TRACK 09 AUDIO
TITLE "I'm Beginning To See The Light"
ISRC USF095725520
INDEX 00 35:23:70
INDEX 01 35:26:20
TRACK 10 AUDIO
TITLE "Lost In Meditation"
ISRC USF095725530
INDEX 00 38:51:58
INDEX 01 38:54:45
TRACK 11 AUDIO
TITLE "Perdido"
ISRC USF095725540
INDEX 00 42:20:20
INDEX 01 42:22:20
TRACK 12 AUDIO
TITLE "Cottontail"
ISRC USF095725550
INDEX 00 48:34:45
INDEX 01 48:37:58
TRACK 13 AUDIO
TITLE "Do Nothing Till You Hear From Me"
ISRC USF095725560
INDEX 00 52:01:70
INDEX 01 52:04:40
Disc 2
Продолжительность: 67:36
Треклист:
01. Just A Sittin' And A Rockin' (3:34)
02. Solitude (2:09)
03. Rocks In My Bed (3:58)
04. Satin Doll (3:30)
05. Sophisticated Lady (5:21)
06. Just Squeeze Me (But Don't Tease Me) (4:16)
07. It Don't Mean A Thing (If It Ain't Got That Swing) (4:15)
08. Azure (2:23)
09. I Let A Song Go Out Of My Heart (4:12)
10. In A Sentimental Mood (2:48)
11. Don't Get Around Much Anymore (5:02)
12. Prelude To A Kiss (5:29)
13. Mood Indigo (3:28)
14. In A Mellow Tone (5:10)
15. Love You Madly (4:41)
16. Lush Life (3:41)
17. Squatty Roo (3:39)
Лог создания рипа
Exact Audio Copy V0.99 prebeta 5 from 4. May 2009
EAC extraction logfile from 12. August 2011, 22:15
Ella Fitzgerald / Ella Fitzgerald Sings the Duke Ellington Song Book (Cd 2)
Used drive : HL-DT-STDVD-RAM GH22NP20 Adapter: 1 ID: 1
Read mode : Secure
Utilize accurate stream : Yes
Defeat audio cache : Yes
Make use of C2 pointers : No
Read offset correction : 102
Overread into Lead-In and Lead-Out : No
Fill up missing offset samples with silence : Yes
Delete leading and trailing silent blocks : No
Null samples used in CRC calculations : Yes
Used interface : Native Win32 interface for Win NT & 2000
Used output format : Internal WAV Routines
Sample format : 44.100 Hz; 16 Bit; Stereo
TOC of the extracted CD
Track | Start | Length | Start sector | End sector
---------------------------------------------------------
1 | 0:00.33 | 3:34.00 | 33 | 16082
2 | 3:34.33 | 2:09.00 | 16083 | 25757
3 | 5:43.33 | 3:58.32 | 25758 | 43639
4 | 9:41.65 | 3:29.50 | 43640 | 59364
5 | 13:11.40 | 5:21.23 | 59365 | 83462
6 | 18:32.63 | 4:15.62 | 83463 | 102649
7 | 22:48.50 | 4:14.70 | 102650 | 121769
8 | 27:03.45 | 2:22.68 | 121770 | 132487
9 | 29:26.38 | 4:11.52 | 132488 | 151364
10 | 33:38.15 | 2:47.55 | 151365 | 163944
11 | 36:25.70 | 5:02.00 | 163945 | 186594
12 | 41:27.70 | 5:29.25 | 186595 | 211294
13 | 46:57.20 | 3:27.43 | 211295 | 226862
14 | 50:24.63 | 5:10.32 | 226863 | 250144
15 | 55:35.20 | 4:41.25 | 250145 | 271244
16 | 60:16.45 | 3:41.13 | 271245 | 287832
17 | 63:57.58 | 3:38.62 | 287833 | 304244
Range status and errors
Selected range
Filename C:\Documents and Settings\Proprietario\Desktop\Ella Fitzgerald - Ella Fitzgerald Sings the Duke Ellington Song Book (disc 2).wav
Peak level 97.3 %
Range quality 100.0 %
Test CRC 79716CD1
Copy CRC 79716CD1
Copy OK
No errors occurred
AccurateRip summary
Track 1 accurately ripped (confidence 15) [2168152F]
Track 2 accurately ripped (confidence 14) [05BD1A57]
Track 3 accurately ripped (confidence 15) [6C0E21D8]
Track 4 accurately ripped (confidence 15) [ED8DB57A]
Track 5 accurately ripped (confidence 15) [6FE00FDF]
Track 6 accurately ripped (confidence 15) [ACF32630]
Track 7 accurately ripped (confidence 15) [090358F7]
Track 8 accurately ripped (confidence 15) [6816A9B4]
Track 9 accurately ripped (confidence 15) [B1DE2071]
Track 10 accurately ripped (confidence 15) [6D96629E]
Track 11 accurately ripped (confidence 15) [83F04433]
Track 12 accurately ripped (confidence 15) [8D4FF1D9]
Track 13 accurately ripped (confidence 15) [280E164E]
Track 14 accurately ripped (confidence 14) [73D43158]
Track 15 accurately ripped (confidence 15) [880C27F8]
Track 16 accurately ripped (confidence 15) [5386FAB7]
Track 17 accurately ripped (confidence 15) [94095D2F]
All tracks accurately ripped
End of status report
Содержание индексной карты (.CUE)
REM GENRE Jazz Vocal
REM DATE 1957
REM DISCID F50FD811
REM COMMENT ExactAudioCopy v0.99pb5
CATALOG 0042283703728
PERFORMER "Ella Fitzgerald"
TITLE "Ella Fitzgerald Sings The Duke Ellington Song Book (disc 2)"
FILE "Ella Fitzgerald - Sings The Duke Ellington Song Book (disc 2).flac" WAVE
TRACK 01 AUDIO
TITLE "Just A Sittin' And A Rockin'"
ISRC USF095725570
INDEX 00 00:00:00
INDEX 01 00:00:33
TRACK 02 AUDIO
TITLE "Solitude"
ISRC USF095725580
INDEX 00 03:32:20
INDEX 01 03:34:33
TRACK 03 AUDIO
TITLE "Rocks In My Bed"
ISRC USF095725590
INDEX 00 05:41:20
INDEX 01 05:43:33
TRACK 04 AUDIO
TITLE "Satin Doll"
ISRC USF095725600
INDEX 00 09:39:58
INDEX 01 09:41:65
TRACK 05 AUDIO
TITLE "Sophisticated Lady"
ISRC USF095725610
INDEX 00 13:08:45
INDEX 01 13:11:40
TRACK 06 AUDIO
TITLE "Just Squeeze Me (But Don't Tease Me)"
ISRC USF095725620
INDEX 00 18:30:20
INDEX 01 18:32:63
TRACK 07 AUDIO
TITLE "It Don't Mean A Thing (If It Ain't Got That Swing)"
ISRC USF095725630
INDEX 00 22:46:70
INDEX 01 22:48:50
TRACK 08 AUDIO
TITLE "Azure"
ISRC USF095725640
INDEX 00 27:00:70
INDEX 01 27:03:45
TRACK 09 AUDIO
TITLE "I Let A Song Go Out Of My Heart"
ISRC USF095725650
INDEX 00 29:24:33
INDEX 01 29:26:38
TRACK 10 AUDIO
TITLE "In A Sentimental Mood"
ISRC USF095725660
INDEX 00 33:35:70
INDEX 01 33:38:15
TRACK 11 AUDIO
TITLE "Don't Get Around Much Anymore"
ISRC USF095725670
INDEX 00 36:23:45
INDEX 01 36:25:70
TRACK 12 AUDIO
TITLE "Prelude To A Kiss"
ISRC USF095725680
INDEX 00 41:25:70
INDEX 01 41:27:70
TRACK 13 AUDIO
TITLE "Mood Indigo"
ISRC USF095725690
INDEX 00 46:54:58
INDEX 01 46:57:20
TRACK 14 AUDIO
TITLE "In A Mellow Tone"
ISRC USF095725700
INDEX 00 50:22:45
INDEX 01 50:24:63
TRACK 15 AUDIO
TITLE "Love You Madly"
ISRC USF095725710
INDEX 00 55:33:20
INDEX 01 55:35:20
TRACK 16 AUDIO
TITLE "Lush Life"
ISRC USF095725720
INDEX 00 60:13:58
INDEX 01 60:16:45
TRACK 17 AUDIO
TITLE "Squatty Roo"
ISRC USF095725730
INDEX 00 63:54:58
INDEX 01 63:57:58
Disc 3
Продолжительность: 45:27
Треклист:
01. I'm Just A Lucky So And So (4:16)
02. All Too Soon (4:24)
03. Everything But You (2:58)
04. I Got It Bad And That Ain't Good (6:15)
05. Bli-Blip (3:05)
06. Chelsea Bridge (3:25)
07. Portrait Of Ella Fitzgerald (16:15)
08. The E And D Blues (E for Ella D for Duke) (4:50)
Лог создания рипа
Exact Audio Copy V0.99 prebeta 5 from 4. May 2009
EAC extraction logfile from 12. August 2011, 22:59
Ella Fitzgerald / Ella Fitzgerald Sings the Duke Ellington Songbook (Cd 3)
Used drive : HL-DT-STDVD-RAM GH22NP20 Adapter: 1 ID: 1
Read mode : Secure
Utilize accurate stream : Yes
Defeat audio cache : Yes
Make use of C2 pointers : No
Read offset correction : 102
Overread into Lead-In and Lead-Out : No
Fill up missing offset samples with silence : Yes
Delete leading and trailing silent blocks : No
Null samples used in CRC calculations : Yes
Used interface : Native Win32 interface for Win NT & 2000
Used output format : Internal WAV Routines
Sample format : 44.100 Hz; 16 Bit; Stereo
TOC of the extracted CD
Track | Start | Length | Start sector | End sector
---------------------------------------------------------
1 | 0:00.33 | 4:16.00 | 33 | 19232
2 | 4:16.33 | 4:24.12 | 19233 | 39044
3 | 8:40.45 | 2:57.38 | 39045 | 52357
4 | 11:38.08 | 6:14.62 | 52358 | 80469
5 | 17:52.70 | 3:04.38 | 80470 | 94307
6 | 20:57.33 | 3:25.32 | 94308 | 109714
7 | 24:22.65 | 16:14.68 | 109715 | 182832
8 | 40:37.58 | 4:49.50 | 182833 | 204557
Range status and errors
Selected range
Filename C:\Documents and Settings\Proprietario\Desktop\Ella Fitzgerald - Ella Fitzgerald Sings the Duke Ellington Songbook (Cd 3).wav
Peak level 97.2 %
Range quality 100.0 %
Test CRC 6DA86F68
Copy CRC 6DA86F68
Copy OK
No errors occurred
AccurateRip summary
Track 1 accurately ripped (confidence 13) [C3F8E381]
Track 2 accurately ripped (confidence 12) [67260797]
Track 3 accurately ripped (confidence 13) [BF88B1CB]
Track 4 accurately ripped (confidence 13) [E734BF00]
Track 5 accurately ripped (confidence 13) [0CC36B84]
Track 6 accurately ripped (confidence 12) [1469B2A6]
Track 7 accurately ripped (confidence 13) [F65D3531]
Track 8 accurately ripped (confidence 13) [B187EF0B]
All tracks accurately ripped
End of status report
Содержание индексной карты (.CUE)
REM GENRE Jazz
REM DATE 1957
REM DISCID 5F0AA708
REM COMMENT ExactAudioCopy v0.99pb5
CATALOG 0042283703827
PERFORMER "Ella Fitzgerald"
TITLE "Ella Fitzgerald Sings The Duke Ellington Song Book (disc 3)"
FILE "Ella Fitzgerald - Sings The Duke Ellington Song Book (disc 3).flac" WAVE
TRACK 01 AUDIO
TITLE "I'm Just A Lucky So And So"
ISRC USF095725740
INDEX 00 00:00:00
INDEX 01 00:00:33
TRACK 02 AUDIO
TITLE "All Too Soon"
ISRC USF095725750
INDEX 00 04:14:08
INDEX 01 04:16:33
TRACK 03 AUDIO
TITLE "Everything But You"
ISRC USF095725760
INDEX 00 08:38:20
INDEX 01 08:40:45
TRACK 04 AUDIO
TITLE "I Got It Bad And That Ain't Good"
ISRC USF095725770
INDEX 00 11:34:70
INDEX 01 11:38:08
TRACK 05 AUDIO
TITLE "Bli-Blip"
ISRC USF095725780
INDEX 00 17:50:45
INDEX 01 17:52:70
TRACK 06 AUDIO
TITLE "Chelsea Bridge"
ISRC USF095725790
INDEX 00 20:54:70
INDEX 01 20:57:33
TRACK 07 AUDIO
TITLE "Portrait Of Ella Fitzgerald"
ISRC USF095725800
INDEX 00 24:19:70
INDEX 01 24:22:65
TRACK 08 AUDIO
TITLE "The E And D Blues (E for Ella D for Duke)"
ISRC USF095725810
INDEX 00 40:34:58
INDEX 01 40:37:58
   
Download
Для скачивания .torrent файлов необходима регистрация
Сайт не распространяет и не хранит электронные версии произведений, а лишь предоставляет доступ к создаваемому пользователями каталогу ссылок на торрент-файлы, которые содержат только списки хеш-сумм
[Профиль]  [ЛС] 

bufal

Стаж: 6 лет 9 месяцев

Сообщений: 232

bufal · 09-Окт-12 08:22 (спустя 1 год)

Merci beaucoup
[Профиль]  [ЛС] 

idios2011

Стаж: 8 лет 3 месяца

Сообщений: 137

idios2011 · 29-Июн-15 12:50 (спустя 2 года 8 месяцев)

Шикарно-нет слов.
[Профиль]  [ЛС] 
 
Ответить
Loading...
Error