Квайдан: Повествование о загадочном и ужасном (Тайный призрак) / Kwaidan (Ghost Stories)(Масаки Кобаяси / Masaki Kobayashi)[1964, Япония, Ужасы, Фэнтези, Драма, Мистика, DVD9 (Custom)] 2-Dvo+ Sub Eng, Rus + Original Jpn / Criterion Collection#90

Страницы:  1
Ответить
Автор
Сообщение

andrmaj132

Top Seed 04* 320r

Стаж: 9 лет 5 месяцев

Сообщений: 1010

andrmaj132 · 12-Ноя-16 19:06 (2 года 9 месяцев назад, ред. 06-Мар-18 21:20)

Квайдан: Повествование о загадочном и ужасном (Тайный призрак) / Kwaidan (Ghost Stories) / Criterion Collection#90
Страна:ЯпонияСтудия:Bungei, Ninjin Club, Toho Company, Toyo Kogyo Kabushiki Kaisha.Жанр:Ужасы, Фэнтези, Драма, МистикаГод выпуска:1964
Продолжительность:02:41:14Производство:The Criterion Collection #90Перевод 1:Профессиональный (Двухголосый закадровый) SomewaxПеревод 2:Профессиональный (Двухголосый закадровый) DVD MagikСубтитры:Английские, Русские
Премьера (мир):29.12.1964
Режиссер:Масаки Кобаяси / Masaki Kobayashi В ролях:Митиё Аратама, Мисако Ватанабэ, Рэнтаро Микуни, Тацуя Накадай, Кэйко Киси, Кацуо Накамура, Тэцуро Тамба, Такаси Симура, Канэмон Накамура, Нобору НакаяОписание:Совершенно потрясающий в изобразительном плане, завораживающий мистически-философский фильм состоит из четырех новелл: «Черные волосы», «Снежная женщина», «Сказание о Хойчи безухом», «В чашке чая».
Нет смысла рассказывать содержание — жизнь и смерть, любовь и предательство, поступки и расплата — эти вечные темы решены с тончайшим вкусом. И хотя в картине пристутствуют люди живые и духи, вернувшиеся по разным причинам из царства мертвых, к жанру ужасов или мистики отнести ее можно лишь условно.

Доп. информация:Исходник найден в сети. Удален трейлер.Меню неотредактировано, переключение звуковых дорожек с пульта.Огромное Спасибо Всем, без чьей помощи этот релиз не состоялся бы!Сценарий:Ёко Мидзуки, Лафкадио Хирн Продюсер:Сигэру Вакацуки, Takeshi Aikawa, Naotomo KomeОператор:Ёсио МиядзимаКомпозитор:Тору ТакэмицуХудожник:Шигемаса Тода, Масахиро Като, Dai ArakawaМонтаж:Хисаси Сагара
Знаете ли вы, что
Награды и номинации

Рецензия
Софт
PgcDemux 1.2.0.5 - разделение компонентов диска на файлы.
BeHappy, BeLight - AC3 -> Wav.
Sound Forge pro 10 - синхронизация звука.
Subtitle Workshop, MaestroSBT, SubtitleCreator, DVD SubEdit (субтитры).
MuxMan DVD authoring Professional - мультиплексирование и авторинг.
DVDRemake Pro 3.6.4 - реавторинг DVD.
DVD Shrink 3.2 - Сэмпл.

Точка перехода.
Бонусы:
Нет.
Меню:Английский, статичное, неозвученное.Сэмпл:https://www.sendspace.com/file/6n9q5tТип релиза:DVD9 (Custom)
Контейнер:DVD-Video
Видео:NTSC 16:9 (720x480) VBR, Auto Letterboxed, 5999 Кбит/сек, 23,976 (24000/1001) кадра/сек Аудио 1:Японский:AC3, 1 ch, 48.0 KHz, 96 Кбит/сек / Оригинал
Аудио 2:Русский:AC3, 2 ch, 48.0 KHz, 192 Кбит/сек / Профессиональный (Двухголосый закадровый) Somewax
Аудио 3:Русский:AC3, 2 ch, 48.0 KHz, 192 Кбит/сек / Профессиональный (Двухголосый закадровый) DVD Magik Формат субтитров:prerendered (DVD/IDX+SUB)
Dvd Info
Title: Kwaidan DVD-9_Custom_Criterion#90
Size: 7.83 Gb ( 8 210 128,00 KBytes ) - DVD-9
Enabled regions: 1, 2, 3, 4, 5, 6, 7, 8
VTS_01 :
Play Length: 00:00:00
Video: NTSC 4:3 (720x480) VBR
Audio:
Not specified (Dolby AC3, 2 ch)
VTS_02 :
Play Length: 02:41:14
Video: NTSC 16:9 (720x480) VBR, Auto Letterboxed
Audio:
Japanese (Dolby AC3, 1 ch)
Russian (Dolby AC3, 2 ch)
Russian (Dolby AC3, 2 ch)
Subtitles:
English
Russian
VTS_03 :
Play Length: 00:00:01
Video: NTSC 16:9 (720x480) VBR, Auto Letterboxed
Audio:
Japanese (Dolby AC3, 1 ch)
Subtitles:
English
Mediainfo
Общее
Полное имя : F:\Kwaidan DVD-9_Custom_Criterion#90\VIDEO_TS\VTS_02_2.VOB
Формат : MPEG-PS
Размер файла : 1024 Мбайт
Продолжительность : 21 м. 39 с.
Режим общего битрейта : Переменный
Общий поток : 6611 Кбит/сек
Видео
Идентификатор : 224 (0xE0)
Формат : MPEG Video
Версия формата : Version 2
Профиль формата : Main@Main
Параметр BVOP формата : Да
Параметр матрицы формата : Выборочная
Параметр GOP формата : M=3, N=12
Продолжительность : 21 м. 39 с.
Вид битрейта : Переменный
Битрейт : 5999 Кбит/сек
Максимальный битрейт : 9800 Кбит/сек
Ширина : 720 пикселей
Высота : 480 пикселей
Соотношение сторон : 16:9
Частота кадров : 23,976 (24000/1001) кадра/сек
Стандарт вещания : Component
Цветовое пространство : YUV
Субдискретизация насыщенности : 4:2:0
Битовая глубина : 8 бит
Тип развёртки : Прогрессивная
Порядок развёртки : 2:3 Pulldown
Метод сжатия : С потерями
Бит/(Пиксели*Кадры) : 0.724
Временной код первого кадра : 01:21:15:03
Оригинал временного кода : Group of pictures header
GOP, открыто/закрыто : Открыто
Размер потока : 929 Мбайт (91%)
Основные цвета : BT.601 NTSC
Характеристики трансфера : BT.601
Коэффициенты матрицы : BT.601
Аудио #1
Идентификатор : 189 (0xBD)-128 (0x80)
Формат : AC-3
Формат/Информация : Audio Coding 3
Расширение режима : CM (complete main)
Параметр Endianness формата : Big
Режим смешивания : DVD-Video
Продолжительность : 21 м. 39 с.
Вид битрейта : Постоянный
Битрейт : 96,0 Кбит/сек
Каналы : 1 канал
Расположение каналов : Front: C
Частота : 48,0 КГц
Частота кадров : 31,250 кадров/сек (1536 spf)
Метод сжатия : С потерями
Задержка видео : -277 мс.
Размер потока : 14,9 Мбайт (1%)
Аудио #2
Идентификатор : 189 (0xBD)-129 (0x81)
Формат : AC-3
Формат/Информация : Audio Coding 3
Расширение режима : CM (complete main)
Параметр Endianness формата : Big
Режим смешивания : DVD-Video
Продолжительность : 21 м. 39 с.
Вид битрейта : Постоянный
Битрейт : 192 Кбит/сек
Каналы : 2 канала
Расположение каналов : Front: L R
Частота : 48,0 КГц
Частота кадров : 31,250 кадров/сек (1536 spf)
Метод сжатия : С потерями
Задержка видео : -341 мс.
Размер потока : 29,7 Мбайт (3%)
Аудио #3
Идентификатор : 189 (0xBD)-130 (0x82)
Формат : AC-3
Формат/Информация : Audio Coding 3
Расширение режима : CM (complete main)
Параметр Endianness формата : Big
Режим смешивания : DVD-Video
Продолжительность : 21 м. 39 с.
Вид битрейта : Постоянный
Битрейт : 192 Кбит/сек
Каналы : 2 канала
Расположение каналов : Front: L R
Частота : 48,0 КГц
Частота кадров : 31,250 кадров/сек (1536 spf)
Метод сжатия : С потерями
Задержка видео : -341 мс.
Размер потока : 29,7 Мбайт (3%)
Текст #1
Идентификатор : 189 (0xBD)-32 (0x20)
Формат : RLE
Формат/Информация : Run-length encoding
Режим смешивания : DVD-Video
Задержка видео : 167 мс.
Текст #2
Идентификатор : 189 (0xBD)-33 (0x21)
Формат : RLE
Формат/Информация : Run-length encoding
Режим смешивания : DVD-Video
Задержка видео : 167 мс.
Текст #3
Идентификатор : 189 (0xBD)-34 (0x22)
Формат : RLE
Формат/Информация : Run-length encoding
Режим смешивания : DVD-Video
Задержка видео : 801 мс.
Скриншоты меню
Скриншоты фильма
Буклет
Релиз: Уважаемые пользователи!Найдите пару минут поблагодарить релизера и высказаться в топике раздачи.Ваше мнение - бальзам для раздающего и пища для ума остальным пользователям.Мои раздачи
Download
Сайт не распространяет и не хранит электронные версии произведений, а лишь предоставляет доступ к создаваемому пользователями каталогу ссылок на торрент-файлы, которые содержат только списки хеш-сумм
Как скачивать? (для скачивания .torrent файлов необходима регистрация)
[Профиль]  [ЛС] 

Skytower

Top Seed 03* 160r

Стаж: 10 лет 8 месяцев

Сообщений: 10587

Skytower · 13-Ноя-16 00:22 (спустя 5 часов, ред. 13-Ноя-16 00:22)

andrmaj132
Дякую, сусіде! Дуже, дуже.
Цікаве те, що було КЛАСНЕ видання EURIKA, але тільки з японською мовою (чомусь).
Большое спасибо!
[Профиль]  [ЛС] 

uservboy

Стаж: 9 лет 7 месяцев

Сообщений: 111


uservboy · 13-Ноя-16 19:06 (спустя 18 часов)

"Нет смысла рассказывать содержание" - ((((((((((
Вопрос,- 1) это несколько короткометражек? 2) Есть ли там коротких метр, где самурай пьет пиалу воды и "выпивает" чью-то душу?
(а то с таким названием есть, но это может быть имя обобщенное!)
заранее спасибо за уточнение....
[Профиль]  [ЛС] 

Skytower

Top Seed 03* 160r

Стаж: 10 лет 8 месяцев

Сообщений: 10587

Skytower · 14-Ноя-16 09:08 (спустя 14 часов, ред. 14-Ноя-16 09:08)

uservboy
Сябрам стоит знать, что это киноэнцеклопедический шедевр-классика кинематографа режиссёра - классика.
При отсутствии сидов раздаём по просьбе в ЛС со ссылкой на релиз.
[Профиль]  [ЛС] 
 
Ответить
Loading...
Error