(Vocal Jazz) [CD] Patricia Barber - Nightclub - 2000 {24kt Gold, HDCD}, FLAC (tracks+.cue), lossless

Страницы:  1

Ответить
Автор
Сообщение

papa1954

Top Seed 09* 10240r

Стаж: 12 лет 4 месяца

Сообщений: 16940

papa1954 · 19-Янв-16 17:09 (3 года 5 месяцев назад)

Patricia Barber - Nightclub Жанр: Vocal Jazz
Носитель: CD
Год издания: 2000
Издатель (лейбл): Premonition Records
Номер по каталогу: 90763-G
Аудиокодек: FLAC (*.flac)
Тип рипа: tracks+.cue
Битрейт аудио: lossless
Продолжительность: 51:26
Источник (релизер): What.cd
Наличие сканов в содержимом раздачи: да
Треклист:
01. Bye Bye Blackbird (4:03)
02. Invitation (4:59)
03. Yesterdays (6:41)
04. Just For A Thrill (3:21)
05. You Don't Know Me (3:46)
06. Alfie (4:50)
07. Autumn Leaves (5:05)
08. Summer Samba (3:45)
09. All Or Nothing At All (3:26)
10. So In Love (3:43)
11. A Man & A Woman (4:19)
12. I Fall In Love Too Easily (3:29)
 
Лог создания рипа
Exact Audio Copy V1.0 beta 3 from 29. August 2011
EAC extraction logfile from 10. January 2013, 21:38
Patricia Barber / Nightclub 24kt Gold hdcd
Used drive : PLEXTOR DVDR PX-810UF Adapter: 5 ID: 0
Read mode : Secure
Utilize accurate stream : Yes
Defeat audio cache : Yes
Make use of C2 pointers : No
Read offset correction : 667
Overread into Lead-In and Lead-Out : No
Fill up missing offset samples with silence : Yes
Delete leading and trailing silent blocks : No
Null samples used in CRC calculations : Yes
Used interface : Native Win32 interface for Win NT & 2000
Gap handling : Appended to previous track
Used output format : User Defined Encoder
Selected bitrate : 128 kBit/s
Quality : High
Add ID3 tag : No
Command line compressor : C:\Program Files\Exact Audio Copy\Flac\flac.exe
Additional command line options : -8 -V -T "ARTIST=%artist%" -T "TITLE=%title%" -T "ALBUM=%albumtitle%" -T "DATE=%year%" -T "TRACKNUMBER=%tracknr%" -T "TOTALTRACKS=%numtracks%" -T "GENRE=%genre%" -T "ALBUMARTIST=%albumartist%" -T "ALBUM ARTIST=%albumartist%" -T "COMMENT=EAC Secure Mode, Test & Copy, AccurateRip, FLAC -8" %source%
TOC of the extracted CD
Track | Start | Length | Start sector | End sector
---------------------------------------------------------
1 | 0:00.00 | 4:03.10 | 0 | 18234
2 | 4:03.10 | 4:58.64 | 18235 | 40648
3 | 9:01.74 | 6:40.47 | 40649 | 70695
4 | 15:42.46 | 3:20.52 | 70696 | 85747
5 | 19:03.23 | 3:46.08 | 85748 | 102705
6 | 22:49.31 | 4:50.31 | 102706 | 124486
7 | 27:39.62 | 5:05.06 | 124487 | 147367
8 | 32:44.68 | 3:44.56 | 147368 | 164223
9 | 36:29.49 | 3:25.56 | 164224 | 179654
10 | 39:55.30 | 3:42.69 | 179655 | 196373
11 | 43:38.24 | 4:18.63 | 196374 | 215786
12 | 47:57.12 | 3:28.51 | 215787 | 231437
Track 1
Filename F:\EAC WAV\01 - Bye Bye Blackbird.wav
Pre-gap length 0:00:02.00
Peak level 99.5 %
Extraction speed 1.2 X
Track quality 100.0 %
Test CRC 958B738D
Copy CRC 958B738D
Accurately ripped (confidence 3) [815B5BFA] (AR v2)
Copy OK
Track 2
Filename F:\EAC WAV\02 - Invitation.wav
Pre-gap length 0:00:01.51
Peak level 97.9 %
Extraction speed 1.4 X
Track quality 100.0 %
Test CRC F0703F28
Copy CRC F0703F28
Accurately ripped (confidence 3) [F9C7133D] (AR v2)
Copy OK
Track 3
Filename F:\EAC WAV\03 - Yesterdays.wav
Peak level 98.3 %
Extraction speed 1.6 X
Track quality 100.0 %
Test CRC 27BBC7D8
Copy CRC 27BBC7D8
Accurately ripped (confidence 3) [C64669A2] (AR v2)
Copy OK
Track 4
Filename F:\EAC WAV\04 - Just For A Thrill.wav
Peak level 97.4 %
Extraction speed 1.5 X
Track quality 100.0 %
Test CRC AC032E73
Copy CRC AC032E73
Accurately ripped (confidence 3) [8B4AEB9B] (AR v2)
Copy OK
Track 5
Filename F:\EAC WAV\05 - You Don't Know Me.wav
Peak level 97.4 %
Extraction speed 1.5 X
Track quality 99.9 %
Test CRC 3B5BF0E3
Copy CRC 3B5BF0E3
Accurately ripped (confidence 3) [C11D0AAA] (AR v2)
Copy OK
Track 6
Filename F:\EAC WAV\06 - Alfie.wav
Peak level 97.5 %
Extraction speed 1.8 X
Track quality 100.0 %
Test CRC 01972C03
Copy CRC 01972C03
Accurately ripped (confidence 3) [8D6B6C15] (AR v2)
Copy OK
Track 7
Filename F:\EAC WAV\07 - Autumn Leaves.wav
Pre-gap length 0:00:01.45
Peak level 97.4 %
Extraction speed 1.8 X
Track quality 99.9 %
Test CRC E7F69660
Copy CRC E7F69660
Accurately ripped (confidence 3) [2476C22D] (AR v2)
Copy OK
Track 8
Filename F:\EAC WAV\08 - Summer Samba.wav
Peak level 97.8 %
Extraction speed 1.7 X
Track quality 99.9 %
Test CRC 6CA21303
Copy CRC 6CA21303
Accurately ripped (confidence 3) [8B2A3D4E] (AR v2)
Copy OK
Track 9
Filename F:\EAC WAV\09 - All Or Nothing At All.wav
Pre-gap length 0:00:01.21
Peak level 97.6 %
Extraction speed 2.0 X
Track quality 100.0 %
Test CRC 0899BAE1
Copy CRC 0899BAE1
Accurately ripped (confidence 3) [9314A18F] (AR v2)
Copy OK
Track 10
Filename F:\EAC WAV\10 - So In Love.wav
Pre-gap length 0:00:01.67
Peak level 97.5 %
Extraction speed 2.1 X
Track quality 100.0 %
Test CRC 96B6F43B
Copy CRC 96B6F43B
Accurately ripped (confidence 3) [EDFE3349] (AR v2)
Copy OK
Track 11
Filename F:\EAC WAV\11 - A Man & A Woman.wav
Peak level 97.5 %
Extraction speed 2.2 X
Track quality 100.0 %
Test CRC 49D147FA
Copy CRC 49D147FA
Accurately ripped (confidence 3) [44D4F90C] (AR v2)
Copy OK
Track 12
Filename F:\EAC WAV\12 - I Fall In Love Too Easily.wav
Pre-gap length 0:00:03.04
Peak level 97.4 %
Extraction speed 2.3 X
Track quality 100.0 %
Test CRC BD4F3737
Copy CRC BD4F3737
Cannot be verified as accurate (confidence 7) [2A225708], AccurateRip returned [C3E9F004] (AR v2)
Copy OK
11 track(s) accurately ripped
1 track(s) could not be verified as accurate
Some tracks could not be verified as accurate
No errors occurred
End of status report
---- CUETools DB Plugin V2.1.3
[CTDB TOCID: W7Q0mz_Wudoey1A4mkZXpY775zs-] database access error: Pending
==== Log checksum 061770ACA73F7CBE7ED27BAB6C6B65D6C78D697D8D16707142F0488E69ED68F7 ====
Содержание индексной карты (.CUE)
REM GENRE Jazz
REM DATE 2000
REM DISCID AB0C0D0C
REM COMMENT "ExactAudioCopy v1.0b3"
PERFORMER "Patricia Barber"
TITLE "Nightclub 24kt Gold hdcd"
FILE "01 - Bye Bye Blackbird.wav" WAVE
TRACK 01 AUDIO
TITLE "Bye Bye Blackbird"
PERFORMER "Patricia Barber"
INDEX 01 00:00:00
TRACK 02 AUDIO
TITLE "Invitation"
PERFORMER "Patricia Barber"
INDEX 00 04:01:34
FILE "02 - Invitation.wav" WAVE
INDEX 01 00:00:00
FILE "03 - Yesterdays.wav" WAVE
TRACK 03 AUDIO
TITLE "Yesterdays"
PERFORMER "Patricia Barber"
INDEX 01 00:00:00
FILE "04 - Just For A Thrill.wav" WAVE
TRACK 04 AUDIO
TITLE "Just For A Thrill"
PERFORMER "Patricia Barber"
INDEX 01 00:00:00
FILE "05 - You Don't Know Me.wav" WAVE
TRACK 05 AUDIO
TITLE "You Don't Know Me"
PERFORMER "Patricia Barber"
INDEX 01 00:00:00
FILE "06 - Alfie.wav" WAVE
TRACK 06 AUDIO
TITLE "Alfie"
PERFORMER "Patricia Barber"
INDEX 01 00:00:00
TRACK 07 AUDIO
TITLE "Autumn Leaves"
PERFORMER "Patricia Barber"
INDEX 00 04:48:61
FILE "07 - Autumn Leaves.wav" WAVE
INDEX 01 00:00:00
FILE "08 - Summer Samba.wav" WAVE
TRACK 08 AUDIO
TITLE "Summer Samba"
PERFORMER "Patricia Barber"
INDEX 01 00:00:00
TRACK 09 AUDIO
TITLE "All Or Nothing At All"
PERFORMER "Patricia Barber"
INDEX 00 03:43:35
FILE "09 - All Or Nothing At All.wav" WAVE
INDEX 01 00:00:00
TRACK 10 AUDIO
TITLE "So In Love"
PERFORMER "Patricia Barber"
INDEX 00 03:23:64
FILE "10 - So In Love.wav" WAVE
INDEX 01 00:00:00
FILE "11 - A Man & A Woman.wav" WAVE
TRACK 11 AUDIO
TITLE "A Man & A Woman"
PERFORMER "Patricia Barber"
INDEX 01 00:00:00
TRACK 12 AUDIO
TITLE "I Fall In Love Too Easily"
PERFORMER "Patricia Barber"
INDEX 00 04:15:59
FILE "12 - I Fall In Love Too Easily.wav" WAVE
INDEX 01 00:00:00
Download
Для скачивания .torrent файлов необходима регистрация
Сайт не распространяет и не хранит электронные версии произведений, а лишь предоставляет доступ к создаваемому пользователями каталогу ссылок на торрент-файлы, которые содержат только списки хеш-сумм
[Профиль]  [ЛС] 

the_cat1

Стаж: 10 лет 8 месяцев

Сообщений: 5


the_cat1 · 18-Июл-17 21:33 (спустя 1 год 5 месяцев)

1300 человек скачали и ни один не отписался? Как так может быть?
[Профиль]  [ЛС] 

portuguёs

Стаж: 3 года 6 месяцев

Сообщений: 4


portuguёs · 12-Сен-17 09:25 (спустя 1 месяц 24 дня)

the_cat1 писал(а):
735363191300 человек скачали и ни один не отписался? Как так может быть?
Шикарный звук, не возможно оторваться для того что бы отписаться.
[Профиль]  [ЛС] 

jimmiepage

Стаж: 5 лет 11 месяцев

Сообщений: 32


jimmiepage · 06-Окт-17 14:34 (спустя 24 дня)

the_cat1 писал(а):
735363191300 человек скачали и ни один не отписался? Как так может быть?
Мутота полная.
[Профиль]  [ЛС] 

yorker1983

Стаж: 9 лет 3 месяца

Сообщений: 17

yorker1983 · 10-Янв-18 11:33 (спустя 3 месяца 3 дня, ред. 10-Янв-18 11:33)

Более натуральный и открытый звук, чем на версии от MFSL! Звучит более четко и напористо. Один минус - резковаты сибилянты, особенно звук "с", на MFSL помягче (скорее в силу приглушенности всей записи).
[Профиль]  [ЛС] 

и вам не хворать

Стаж: 3 месяца 21 день

Сообщений: 330


и вам не хворать · 14-Июл-19 17:01 (спустя 1 год 6 месяцев)

Стоит отметить, что эмблема HDCD - попросту фейк! Функционально только для включения индикатора на проигрывателях, поддерживающих функцию. Реально задействованы 16 разрядов. Со 2_го по 17. Если сконвертировать с применением фишки +6 дБ, то с 1_ого по 16 разряд.
[Профиль]  [ЛС] 
 
Ответить
Loading...
Error