(norway, jazz, female vocal, ambient, world) Kristin Asbjornsen - The Night Shines Like The Day (with Tord Gustavsen) - 2009, FLAC (tracks+.cue), lossless

:  1

deepofrain

VIP ()

: 12 1

: 4887

deepofrain · 17--09 09:57 (10 3 , . 18--13 18:56)

Kristin Asbjornsen - The Night Shines Like The Day

: jazz, female vocal, ambient, norway
: 2009
: Norway
: FLAC
: tracks+.cue
: lossless
: 37-65
:
01 - Green is everywhere
02 - If this is the ending
03 - Snowflake
04 - Don't hide your face from me
05 - Afloat
06 - And I long to see you again
07 - I'm too heavy now
08 - Walk around me
09 - Moment
10 - Rain, oh Lord
11 - One day my heart will break
12 - Someday I'll carry you home
13 - Lose
. :
Kristin Asbjrnsen vocals
Tord Gustavsen Grand piano
Olav Torget konting and guitars
Svante Henryson cello and electric bass
Knut Aalefjr - percussion
Jostein Ansnes vocals, lap steel and additional guitars
log
Exact Audio Copy V0.99 prebeta 4 from 23. January 2008
EAC extraction logfile from 19. March 2009, 18:44
Kristin Asbjrnsen / The Night Shines Like The Day
Used drive : HL-DT-STDVDRAM GSA-T20N Adapter: 0 ID: 0
Read mode : Secure
Utilize accurate stream : Yes
Defeat audio cache : Yes
Make use of C2 pointers : No
Read offset correction : 667
Overread into Lead-In and Lead-Out : No
Fill up missing offset samples with silence : Yes
Delete leading and trailing silent blocks : No
Null samples used in CRC calculations : Yes
Used interface : Native Win32 interface for Win NT & 2000
Gap handling : Appended to previous track
Used output format : User Defined Encoder
Selected bitrate : 1024 kBit/s
Quality : High
Add ID3 tag : No
Command line compressor : C:\Program Files\Exact Audio Copy\FLAC\FLAC.EXE
Additional command line options : -8 -V -T "ARTIST=%a" -T "TITLE=%t" -T "ALBUM=%g" -T "DATE=%y" -T "TRACKNUMBER=%n" -T "GENRE=%m" -T "COMMENT=Ripped by Xecremus" %s -o %d
TOC of the extracted CD
Track | Start | Length | Start sector | End sector
---------------------------------------------------------
1 | 0:00.00 | 1:02.15 | 0 | 4664
2 | 1:02.15 | 3:51.59 | 4665 | 22048
3 | 4:53.74 | 3:42.29 | 22049 | 38727
4 | 8:36.28 | 3:48.68 | 38728 | 55895
5 | 12:25.21 | 4:17.07 | 55896 | 75177
6 | 16:42.28 | 3:06.51 | 75178 | 89178
7 | 19:49.04 | 1:27.72 | 89179 | 95775
8 | 21:17.01 | 2:36.39 | 95776 | 107514
9 | 23:53.40 | 4:16.28 | 107515 | 126742
10 | 28:09.68 | 4:25.37 | 126743 | 146654
11 | 32:35.30 | 2:08.41 | 146655 | 156295
12 | 34:43.71 | 2:55.53 | 156296 | 169473
13 | 37:39.49 | 2:32.64 | 169474 | 180937
Track 1
Filename F:\Music\Kristin Asbjrnsen - The Night Shines Like The Day (2009)\01 - Green is everywhere.wav
Pre-gap length 0:00:02.00
Peak level 79.0 %
Track quality 100.0 %
Test CRC FC55D00A
Copy CRC FC55D00A
Copy OK
Track 2
Filename F:\Music\Kristin Asbjrnsen - The Night Shines Like The Day (2009)\02 - If this is the ending.wav
Peak level 97.7 %
Track quality 99.9 %
Test CRC DB542875
Copy CRC DB542875
Copy OK
Track 3
Filename F:\Music\Kristin Asbjrnsen - The Night Shines Like The Day (2009)\03 - Snowflake.wav
Peak level 98.0 %
Track quality 100.0 %
Test CRC 4F3576CA
Copy CRC 4F3576CA
Copy OK
Track 4
Filename F:\Music\Kristin Asbjrnsen - The Night Shines Like The Day (2009)\04 - Don't hide your face from me.wav
Peak level 95.6 %
Track quality 100.0 %
Test CRC 9DAE19DE
Copy CRC 9DAE19DE
Copy OK
Track 5
Filename F:\Music\Kristin Asbjrnsen - The Night Shines Like The Day (2009)\05 - Afloat.wav
Peak level 100.0 %
Track quality 100.0 %
Test CRC 9C7E3DDA
Copy CRC 9C7E3DDA
Copy OK
Track 6
Filename F:\Music\Kristin Asbjrnsen - The Night Shines Like The Day (2009)\06 - And I long to see you again.wav
Peak level 87.0 %
Track quality 100.0 %
Test CRC B1FA8E7A
Copy CRC B1FA8E7A
Copy OK
Track 7
Filename F:\Music\Kristin Asbjrnsen - The Night Shines Like The Day (2009)\07 - I'm too heavy now.wav
Peak level 79.9 %
Track quality 100.0 %
Test CRC C8E3B208
Copy CRC C8E3B208
Copy OK
Track 8
Filename F:\Music\Kristin Asbjrnsen - The Night Shines Like The Day (2009)\08 - Walk around me.wav
Peak level 98.4 %
Track quality 100.0 %
Test CRC C24B5B02
Copy CRC C24B5B02
Copy OK
Track 9
Filename F:\Music\Kristin Asbjrnsen - The Night Shines Like The Day (2009)\09 - Moment.wav
Peak level 100.0 %
Track quality 99.9 %
Test CRC 51781C0A
Copy CRC 51781C0A
Copy OK
Track 10
Filename F:\Music\Kristin Asbjrnsen - The Night Shines Like The Day (2009)\10 - Rain, oh Lord.wav
Peak level 97.6 %
Track quality 100.0 %
Test CRC 102A72DE
Copy CRC 102A72DE
Copy OK
Track 11
Filename F:\Music\Kristin Asbjrnsen - The Night Shines Like The Day (2009)\11 - One day my heart will break.wav
Peak level 96.3 %
Track quality 100.0 %
Test CRC 946E130C
Copy CRC 946E130C
Copy OK
Track 12
Filename F:\Music\Kristin Asbjrnsen - The Night Shines Like The Day (2009)\12 - Someday I'll carry you home.wav
Peak level 96.7 %
Track quality 100.0 %
Test CRC 29FEB156
Copy CRC 29FEB156
Copy OK
Track 13
Filename F:\Music\Kristin Asbjrnsen - The Night Shines Like The Day (2009)\13 - Lose.wav
Peak level 95.0 %
Track quality 100.0 %
Test CRC 590370B2
Copy CRC 590370B2
Copy OK
No errors occurred
End of status report
KRISTIN ASBJRNSENs new release tour in Europe!
The night shines like the day

Kristin Asbjrnsen vocals
Tord Gustavsen Grand piano
Olav Torget konting and guitars
Svante Henryson cello and electric bass
Knut Aalefjr - percussion
Jostein Ansnes vocals, lap steel and additional guitars
19th January 2009 Kristin saw the release of Kristins new enchanting and critically acclaimed solo-album The night shines like the day in Norway (Emarcy/Universal Music).
The night shines like the day is the first album totally based on Kristins own lyrics and music. The music is a powerful, mesmerizing beautiful exploration; quiet and intense, with an incredibly strong awareness in the way Kristin is approaching the songs. Its soulful music that flows, touchingly grounded in Kristins unique voice.
The album will be released in Europe during 2009 (in Germany 5th June), followed by an extended European release tour. Kristin is well known for her great live-performances and she is touring with such an extraordinary ensemble!
About the songs
This album is all about loss and belonging a journey of hope, embrace and transforming moments of life.
Kristin wrote the songs at the piano; but along the way the music developed within a haunting and distinctive ensemble sound, where West-African guitars blend creatively with the cello and piano. The arrangements are coloured by Kristins interpretations of African American spirituals on the critically acclaimed album Wayfaring Stranger, as well as her long term duo work with Tord Gustavsen. And they show traces of old gospel hymns and the West African danceable approach.
The album is produced by Jostein Ansnes, and Nils Petter Molvr (trumpet) and Sizwe Magwaza (vocals) is also participating on the album.
Kristin says:
I invited some of the musicians that have been very important to me during the past years. I feel humble and I am touched by the way they have approached my songs, with such powerful musical performances and with so much beauty.
The arrangements live and on the album are so finely tuned and rich in texture, with an exceptional playful interaction between the musicians. Still the music tender and somber expressions - maintains the simplicity and the warm intimacy from where the songs were born.
The night shines like the day carries strong imprints of love. The longing to embrace and being embraced.
It has been a long journey since these songs started to grow in me. Working with the music has been both comforting and challenging. When everything falls apart and there seems to be no way out, we sometimes experience a glimpse of hope entering the darkness, that creates contours of a new view and new directions expressed in the title of the album: The night shines like the day. Creating these songs has been a process gradually grounded in a strong hope and belief that something broken can be turned into beauty. www.kristinasbjornsen.com
About Kristin Asbjrnsen:
During many years Kristins work has been causing euphoria among reviewers and audiences. Kristin has a unique voice and her trademark sound is rich with contrasts and dynamics, with strong melancholy and a feisty devilish energy.
Known for her very personal approach to song writing, Kristins roots lies in both the singer/songwriter tradition and the groove-based world music.
The captivating Norwegian singer has featured on a number of album releases, as well as a series of tours and festival performances in Europe. She has won several national Music Awards.
In 2006 Kristin released her solo-album Wayfaring stranger a spiritual songbook (Emarcy/Universal music), based on her interpretations of African-American Spirituals. The album as well as the extended touring in Europe was met with outstanding reviews and the album sold to Platinum in Norway. The album has been rotated on the French National Radio station.
In 2005 Kristin made her international debut as a film score composer for the American movie Factotum, based on a novel by Charles Bukowski (Bent Hamer /Jim Stark Prod). The film and the soundtrack received a lot of international acclaim and Factotum was selected for the Cannes Film Festival. Kristins soundtrack album is released on the French/Am label Milan Records.
During many years Kristin focused mainly on work with her permanent musical ensembles DADAFON and KRYT, where her own compositions played a core role. Kristin also participated many years in the vocal experimentation-oriented vocal quartet Kvitretten. Kristin is working with the internationally acclaimed pianist Tord Gustavsen. In 2008 they released a live-album: Bessie Smith revisited with the jazz quartet Nymark Collective. Kristin has collaborated with the Malien singer Rokia Traore and participated in Ketil Bjrnstads A Seafarers song.
Kristin received her formal musical education from the Jazz Department at the Trondheim Music Conservatory, Norway.
Kristins Discography:
Kvitretten (Kristins vocal quartet from 1995-2000): Voices (Curling Legs, 1996)
Kryt: Sub (Curling Legs 1997)
Coloured Moods Coloured Moods (Rim Records, 1998)
Kvitretten: Everything turns (Curling Legs, 1999)
Kryt Low (Bp, 1999)
Kryt Body Electric (MNW, Ep 2001)
Dadafon : And I cant stand still (Rim Records, 2001)
Kryt One heart is too small (MNW, 2001)
Kvitretten: Kloden er en snurrebass som snurrer oss (Curling Legs 2002)
Dadafon: Release Me (Via Music, 2002)
Dadafon: Visitor (Via Music 2002)
Dadafon: Harbour (Emarcy, Universal 2004)
Dadafon: Lost Love Chords (Emarcy, Universal 2005)
Factotum: Movie (US/Norway IFC Films 2005)
Factotum Soundtrack: Factotum (Milan Music, France/USA 2006)
Kristin Asbjrnsen: Wayfaring stranger a spiritual songbook (Universal music 2006/Germany 2007)
Nymark Collective with Kristin Asbjrnsen: Bessie Smith Revisited (Universal 2008)
Kristin Asbjrnsen: The night shines like the day (Universal music 2009)
Kristin also appears on numerous album releases, among them Ketil Bjrnstads A seafarers song (Universal 2004).


. NINEBALL420
Download
.torrent
  ·   torrent ()
, -, -
[]  [] 

KillNO

: 11 7

: 6


KillNO · 19--09 15:49 ( 1 2 )

. , , . .
[]  [] 

plusru

: 10 11

: 175


plusru · 03--10 15:13 ( 1 1 )

Kristin Asbjornsen Release Me
Kristin Asbjornsen Lost Love Chords
Kristin Asbjornsen Visitor
Kristin Asbjornsen Harbour
Kristin Asbjornsen And I Cant Stand Still
http://www.kristinsong.com/discography.php?
[]  [] 

Gutarmaniac

: 8 6

: 17

Gutarmaniac · 17--11 00:11 ( 8 )

! !
deepofrain
, , !
[]  [] 

: 10 1

: 676

· 10--18 20:54 ( 7 1 )

, , , ?
[]  [] 
 
Loading...
Error