Остров / The Island / Sheng si xian (Леунг По-Чи / Leung Po-Chi) [1985, Гонконг, драма, ужасы, DVD5(Custom)] VO (Акира) + Sub Rus + Original Zho

Страницы:  1
Ответить
Автор
Сообщение

tong777

Top Seed 03* 160r

Стаж: 11 лет 9 месяцев

Сообщений: 2419

tong777 · 11-Июл-19 12:49 (1 месяц 10 дней назад)

Остров / The Island / Sheng si xian
Страна: Гонконг
Жанр: драма, ужасы
Год выпуска: 1985
Продолжительность: 01:28:21
Перевод: Одноголосый закадровый Акира
Субтитры: русские
Оригинальная аудиодорожка: китайский
Режиссер: Леунг По-Чи / Leung Po-Chi
В ролях: Джон Шам, Питер Чан, Рональд Вонг, Хелен Ау, Чан Кинг
Описание: Группа старшеклассников вместе со своим учителем (Джон Шам) приезжают на выходные на удаленный остров. Он практически заброшен и живут там только три брата-маньяка, одержимых идеей продолжить свой род. А так как оплодотворить женщину может только самый младший из них, умственно отсталый Сам Фат (Билли Чинг), братья рассматривают каждую девушку, как его невесту – невзирая на их протесты.
Меню: Анимированное русское
Сэмпл: http://multi-up.com/1236481
Тип релиза: DVD5(Custom)
Контейнер: DVD-Video
Видео: NTSC 16:9 (720x480) VBR
Аудио: Cantonese (Dolby AC3, 2 ch) 192 Кбит/сек
Аудио 2: Russian (Dolby AC3, 2 ch) 192 Кбит/сек
Формат субтитров: prerendered (DVD/IDX+SUB)
MediaInfo
Информация о проигрывателе:
Код зоны проигрывателя: 5
Текущий привод: E:
Код зоны диска: 1, 2, 3, 4, 5, 6, All
Полное имя : D:\КИНО РУТР\ДЛЯ рутрекера\Island\VIDEO_TS\VTS_01_1.VOB
Формат : MPEG-PS
Размер файла : 1024 Мбайт
Продолжительность : 20 м.
Режим общего битрейта : Переменный
Общий поток : 6823 Кбит/сек
Видео
Идентификатор : 224 (0xE0)
Формат : MPEG Video
Версия формата : Version 2
Профиль формата : Main@Main
Параметр BVOP формата : Да
Параметр матрицы формата : Выборочная
Параметр GOP формата : Variable
Продолжительность : 20 м.
Вид битрейта : Переменный
Битрейт : 6303 Кбит/сек
Максимальный битрейт : 9000 Кбит/сек
Ширина : 720 пикселей
Высота : 480 пикселей
Соотношение сторон : 16:9
Частота кадров : 29,970 кадров/сек
Стандарт вещания : NTSC
Цветовое пространство : YUV
Субдискретизация насыщенности : 4:2:0
Битовая глубина : 8 бит
Тип развёртки : Чересстрочная
Порядок развёртки : Верхнее поле первое
Метод сжатия : С потерями
Бит/(Пиксели*Кадры) : 0.609
Временной код первого кадра : 00:00:00:00
Оригинал временного кода : Group of pictures header
Размер потока : 946 Мбайт (92%)
Аудио #1
Идентификатор : 189 (0xBD)-128 (0x80)
Формат : AC-3
Формат/Информация : Audio Coding 3
Расширение режима : CM (complete main)
Параметр Endianness формата : Big
Режим смешивания : DVD-Video
Продолжительность : 20 м.
Вид битрейта : Постоянный
Битрейт : 192 Кбит/сек
Каналы : 2 канала
Расположение каналов : Front: L R
Частота : 48,0 КГц
Битовая глубина : 16 бит
Метод сжатия : С потерями
Размер потока : 28,8 Мбайт (3%)
Аудио #2
Идентификатор : 189 (0xBD)-129 (0x81)
Формат : AC-3
Формат/Информация : Audio Coding 3
Расширение режима : CM (complete main)
Параметр Endianness формата : Big
Режим смешивания : DVD-Video
Продолжительность : 20 м.
Вид битрейта : Постоянный
Битрейт : 192 Кбит/сек
Каналы : 2 канала
Расположение каналов : Front: L R
Частота : 48,0 КГц
Битовая глубина : 16 бит
Метод сжатия : С потерями
Размер потока : 28,8 Мбайт (3%)
Текст #1
Идентификатор : 189 (0xBD)-32 (0x20)
Формат : RLE
Формат/Информация : Run-length encoding
Режим смешивания : DVD-Video
Текст #2
Идентификатор : 189 (0xBD)-33 (0x21)
Формат : RLE
Формат/Информация : Run-length encoding
Режим смешивания : DVD-Video
Скриншоты меню
Скриншоты
Download
Сайт не распространяет и не хранит электронные версии произведений, а лишь предоставляет доступ к создаваемому пользователями каталогу ссылок на торрент-файлы, которые содержат только списки хеш-сумм
Как скачивать? (для скачивания .torrent файлов необходима регистрация)
[Профиль]  [ЛС] 

perrelcin

Moderator

Стаж: 11 лет 2 месяца

Сообщений: 2908

perrelcin · 12-Июл-19 10:50 (спустя 22 часа)


T Временная

Реклама стороннего ресурса в меню.
+
Custom без инф. по сборке
[Профиль]  [ЛС] 

bot · 12-Июл-19 10:50 (спустя 22 сек.)

Тема была перенесена из форума DVD Video в форум Азиатские фильмы (DVD Video)
perrelcin
 

tong777

Top Seed 03* 160r

Стаж: 11 лет 9 месяцев

Сообщений: 2419

tong777 · 12-Июл-19 15:12 (спустя 4 часа, ред. 12-Июл-19 15:12)

Достаточно сильный азиатский ужастик который вы не достанете на трекере Хоррорвидеохит и остальных ресурсах. Эксклюзив! Только для Рутрекера из коллекции Тонга. Лучшей коллекции фильмов в Рунете)
[Профиль]  [ЛС] 

perrelcin

Moderator

Стаж: 11 лет 2 месяца

Сообщений: 2908

perrelcin · 12-Июл-19 17:51 (спустя 2 часа 39 мин.)

Цитата:
Только для Рутрекера из коллекции Тонга.
Цитата:
Зарегистрирован: 1 день 5 часов
Раздавать то когда начнёте последние два релиза?
[Профиль]  [ЛС] 

tong777

Top Seed 03* 160r

Стаж: 11 лет 9 месяцев

Сообщений: 2419

tong777 · 12-Июл-19 22:24 (спустя 4 часа, ред. 12-Июл-19 22:24)

perrelcin
Так уже!
[Профиль]  [ЛС] 
 
Ответить
Loading...
Error