Хрустальный портрет / Кристальный человек / Портрет в кристалле / Portrait in Crystal / Shui jing ren (Шан Хуа / Shan Hua) [1983, Гонконг, Ужасы, боевик, детектив, боевые искусства, DVD5 (custom)] VO (В. Береговых) + Original Zho

Страницы:  1
Ответить
Автор
Сообщение

vitolinform

Стаж: 1 год 6 месяцев

Сообщений: 561


vitolinform · 26-Июн-19 12:29 (1 месяц 23 дня назад)

Хрустальный портрет / Кристальный человек / Портрет в кристалле / Portrait in Crystal / Shui jing ren
Страна: Гонконг
Студия: Shaw Brothers
Жанр: Ужасы, боевик, детектив, боевые искусства
Год выпуска: 1983
Продолжительность: 01:17:04
Перевод: Одноголосый закадровый | Виктор Береговых
Субтитры: нет
Оригинальная аудиодорожка: китайский
Режиссер: Шан Хуа / Shan Hua
В ролях:
Джэйсон Паи Пиао, Юк Лау, Сзу-Чиа Чен, Ка Сэнг Чэн, Хань Чианг, Хуанг Чин, Уинг Чунг, Хань Чоу Хо, Ю Лун Сяо, Сан Нэм Хунг, Ван Сеунг-Лам, Хо Хон-Чау, Юй Мю-Линь
Описание:
Лонг Фей, скульптор, который создает фигурки из кристалла. В качестве материала для своих скульптур он использует какой-то особый кристалл, который по легенде обладает необычными свойствами: если на него пролить кровь, то скульптура превращается в некое подобие злого духа. Естественно, узнав об этом, Лонг Фей не поверил и решил поэкспериментировать. Злой дух не заставил себя долго ждать, и скульптура превратилась в воинственную девушку-призрак, которая тут же направилась в близлежащую деревню и начала убивать её жителей и в особенности представителей секретного клана Ядов. Прознав, что Лонг Фей делает скульптуры из необычных кристаллов, клан посылает к нему в убежище группу убийц, но скульптор и его друг удирают и отправляются на поиски призрака, дабы снять с себя подозрения в убийствах и положить конец злодеяниям духа. Преследуя девушку-привидение, они попадают в некий дворец Ду, которым правит странная колдунья, имеющая свои планы на призрака.
Описание от Виктора Береговых:
По древней легенде, если мастер прольет кровь на хрустальную статуэтку, она оживет и превратится в то, чем она является.Мастер Лун Фэй пять лет вырезал статую феи и пролил на нее кровь. И тут же начались убийства мастеров боевых искусств. Люди начали приписывать это ожившей статуе и глава ядовитого клана мастер Яма приказал убить Лун Фэя. Сам же Лун Фэй вовсе не собирался отправляться на тот свет и решил выяснить кто за всем этим стоит...
| IMDb | КиноПоиск | Скачать сэмпл|
Диск найден в сети (Азияклуб asiandvdclub). К нему добавлена русская звуковая дорожка с переводом и озвучиванием Виктора Береговых. Используемые программы: PgcDemux, MuxMan0.15R, VobBlanker
Заказ перевода: vitolinform
Бонусы:
- Трейлеры;
- Фотогалерея;
- Фильмографии;
- Информация об актерах
Меню: Есть, статичное, озвученное, на китайском и английском языках
Тип релиза: DVD5 (custom)
Контейнер: DVD-Video
Видео: NTSC 16:9 (720x480) VBR Auto Letterboxed, ~7819.93 kbps, fps 29.970
Аудио 1: Russian (Dolby AC3, 2 ch) | AC3, 2/0 (L,R) ch, 192 kbps, 48.0 kHz, 16 bits | Одноголосый закадровый (Виктор Береговых)
Аудио 2: Chinese (Dolby AC3, 2 ch) | AC3, 2/0 (L,R) ch, 192 kbps, 48.0 kHz, 16 bits | Китайский
MediaInfo
Title: Hrustalnyii.Portret.1983.DVD5
Size: 4.35 Gb ( 4 565 850,00 KBytes ) - DVD-5
Enabled regions: 1, 2, 3, 4, 5, 6, 7, 8
VTS_01 :
Play Length: 01:17:04
Video: NTSC 16:9 (720x480) VBR, Auto Letterboxed
Audio:
Russian, AC3, 2/0 (L,R) ch, 192 kbps, Delay 0 mSec
Chinese, AC3, 2/0 (L,R) ch, 192 kbps, Delay 0 mSec
VTS_02 :
Play Length: 00:01:02
Video: NTSC 16:9 (720x480) VBR, Auto Letterboxed
Audio:
Chinese, AC3, 2/0 (L,R) ch, 192 kbps, Delay 0 mSec
Subtitles:
Chinese
English
VTS_03 :
Play Length: 00:01:04
Video: NTSC 16:9 (720x480) VBR, Auto Letterboxed
Audio:
Chinese, AC3, 2/0 (L,R) ch, 192 kbps, Delay 0 mSec
Chinese, AC3, 2/0 (L,R) ch, 192 kbps, Delay 0 mSec
Subtitles:
Chinese
English
VTS_04 :
Play Length: 00:01:04
Video: NTSC 16:9 (720x480) VBR, Auto Letterboxed
Audio:
Chinese, AC3, 2/0 (L,R) ch, 192 kbps, Delay 0 mSec
Chinese, AC3, 2/0 (L,R) ch, 192 kbps, Delay 0 mSec
Subtitles:
Chinese
English
VTS_05 :
Play Length: 00:01:02
Video: NTSC 16:9 (720x480) VBR, Auto Letterboxed
Audio:
Chinese, AC3, 2/0 (L,R) ch, 192 kbps, Delay 0 mSec
Chinese, AC3, 2/0 (L,R) ch, 192 kbps, Delay 0 mSec
Subtitles:
Chinese
English
VTS_06 :
Play Length: 00:00:17
Video: NTSC 16:9 (720x480) VBR, Auto Letterboxed
VTS_07 :
Play Length: 00:00:11
Video: NTSC 16:9 (720x480) VBR, Auto Letterboxed
Audio:
Not specified, AC3, 3/2 (L,C,R,SL,SR)+LFE ch, 384 kbps, Delay 0 mSec
VTS_08 :
Play Length: 00:00:11
Video: NTSC 16:9 (720x480) VBR, Auto Letterboxed
Audio:
Not specified, AC3, 3/2 (L,C,R,SL,SR)+LFE ch, 384 kbps, Delay 0 mSec
VTS_09 :
Play Length: 00:00:10
Video: NTSC 16:9 (720x480) VBR, Auto Letterboxed
Audio:
Not specified, AC3, 2/0 (L,R) ch, 192 kbps, Delay 0 mSec
=====================================================
Hrustalnyii.Portret.1983.DVD5\VIDEO_TS\VTS_01_2.VOB
Формат : MPEG-PS
Размер файла : 1024 Мбайт
Продолжительность : 18 м. 32 с.
Режим общего битрейта : Переменный
Общий поток : 7722 Кбит/сек
Видео
Идентификатор : 224 (0xE0)
Формат : MPEG Video
Версия формата : Version 2
Профиль формата : Main@Main
Настройки формата : CustomMatrix / BVOP
Параметр BVOP формата : Да
Параметр матрицы формата : Выборочная
Параметр GOP формата : Variable
Структура изображения : Frame
Продолжительность : 18 м. 32 с.
Вид битрейта : Переменный
Битрейт : 7200 Кбит/сек
Ширина : 720 пикселей
Высота : 480 пикселей
Соотношение сторон : 16:9
Частота кадров : 29,970 (30000/1001) кадров/сек
Стандарт вещания : NTSC
Цветовое пространство : YUV
Субдискретизация насыщенности : 4:2:0
Битовая глубина : 8 бит
Тип развёртки : Чересстрочная
Порядок развёртки : Верхнее поле первое
Метод сжатия : С потерями
Бит/(Пиксели*Кадры) : 0.695
Временной код первого кадра : 10:18:41:15
Оригинал временного кода : Group of pictures header
Размер потока : 953 Мбайт (93%)
Аудио #1
Идентификатор : 189 (0xBD)-128 (0x80)
Формат : AC-3
Формат/Информация : Audio Coding 3
Режим смешивания : DVD-Video
Продолжительность : 18 м. 32 с.
Вид битрейта : Постоянный
Битрейт : 192 Кбит/сек
Каналы : 2 канала
Расположение каналов : Front: L R
Частота : 48,0 КГц
Частота кадров : 31,250 кадров/сек (1536 SPF)
Битовая глубина : 16 бит
Метод сжатия : С потерями
Задержка видео : -388 мс.
Размер потока : 25,5 Мбайт (2%)
ServiceKind/String : Complete Main
Аудио #2
Идентификатор : 189 (0xBD)-129 (0x81)
Формат : AC-3
Формат/Информация : Audio Coding 3
Режим смешивания : DVD-Video
Продолжительность : 18 м. 32 с.
Вид битрейта : Постоянный
Битрейт : 192 Кбит/сек
Каналы : 2 канала
Расположение каналов : Front: L R
Частота : 48,0 КГц
Частота кадров : 31,250 кадров/сек (1536 SPF)
Битовая глубина : 16 бит
Метод сжатия : С потерями
Задержка видео : -388 мс.
Размер потока : 25,5 Мбайт (2%)
ServiceKind/String : Complete Main
Меню
Скриншоты меню
Скриншоты
Скриншоты доп. материалов
Download
Сайт не распространяет и не хранит электронные версии произведений, а лишь предоставляет доступ к создаваемому пользователями каталогу ссылок на торрент-файлы, которые содержат только списки хеш-сумм
Как скачивать? (для скачивания .torrent файлов необходима регистрация)
[Профиль]  [ЛС] 

bot · 26-Июн-19 21:37 (спустя 9 часов)

Тема была перенесена из форума DVD Video в форум Азиатские фильмы (DVD Video)
perrelcin
 

DonSerjio

Top Bonus 04* 3TB

Стаж: 10 лет 8 месяцев

Сообщений: 4569

DonSerjio · 14-Июл-19 20:32 (спустя 18 дней)

Нравятся мне такие ужасы с кунг-фу. Спасибо!
Если надо будет раздать, пишите в ЛС.
[Профиль]  [ЛС] 
 
Ответить
Loading...
Error