Мир сокровищ / The World of Treasure / Foo gwai yan gaan (Стивен Ло / Stephen Lo) [1995, Гонконг, комедия, DVD5(Custom)] VO (Хоррор Мейкер) + Sub Eng + Original Zho

Страницы:  1
Ответить
Автор
Сообщение

tong777

Top Seed 03* 160r

Стаж: 11 лет 9 месяцев

Сообщений: 2420

tong777 · 15-Июл-19 01:28 (1 месяц 4 дня назад, ред. 15-Июл-19 11:10)

Мир сокровищ / The World of Treasure / Foo gwai yan gaan
Страна: Гонконг
Жанр: комедия
Год выпуска: 1995
Продолжительность: 01:36:10
Перевод: Одноголосый закадровый Хоррор Мейкер
Субтитры: английские, китайские встроенные
Оригинальная аудиодорожка: китайский
Режиссер: Стивен Ло / Stephen Lo
В ролях: Майкл Хуи, Энтони Вонг, Эрик Кот, Ян Лам, Ло Кар-Ин, Лю Кай-Чи
Описание: В Гонконг возвращается мультимиллионер Чу Кунг (Майкл Хуи) – много лет назад он переехал в Южную Африку, где открыл прииск по добыче драгоценных камней, принесших ему богатство. На эту радостную новость, как мухи на сладкое, слетаются родственники Чу Кунга – его племянники Чой (Ян Лам) и Фат (Эрик Кот), кузен (Лиу Кай-Чи) и незаконнорожденный сын (Энтони Вонг). И у каждого есть свои планы на деньги богатенького дядюшки.
Меню: Статичное русское
Сэмпл: http://multi-up.com/1236722
Тип релиза: DVD5(Custom)
Контейнер: DVD-Video
Видео: NTSC 4:3 (720x480) VBR
Аудио: Russian (Dolby AC3, 2 ch) 192 Кбит/сек
Аудио 2: Cantonese (Dolby AC3, 2 ch) 192 Кбит/сек
Формат субтитров: hardsub (неотключаемые)
MediaInfo
Информация о проигрывателе:
Код зоны проигрывателя: 5
Текущий привод: E:
Код зоны диска: 1, 2, 3, 4, 5, 6, All
Полное имя : F:\кино\Гонконг\Приватные\Мир сокровищ\VIDEO_TS\VTS_01_1.VOB
Формат : MPEG-PS
Размер файла : 1024 Мбайт
Продолжительность : 21 м.
Режим общего битрейта : Переменный
Общий поток : 6617 Кбит/сек
Библиотека кодирования : encoded by TMPGEnc Video Mastering Works 5 Version. 5.0.6.38
Видео
Идентификатор : 224 (0xE0)
Формат : MPEG Video
Версия формата : Version 2
Профиль формата : Main@High
Параметр BVOP формата : Да
Параметр матрицы формата : Выборочная
Параметр GOP формата : Variable
Продолжительность : 21 м.
Вид битрейта : Переменный
Битрейт : 6102 Кбит/сек
Максимальный битрейт : 8000 Кбит/сек
Ширина : 720 пикселей
Высота : 480 пикселей
Соотношение сторон : 4:3
Частота кадров : 29,970 кадров/сек
Стандарт вещания : NTSC
Цветовое пространство : YUV
Субдискретизация насыщенности : 4:2:0
Битовая глубина : 8 бит
Тип развёртки : Прогрессивная
Метод сжатия : С потерями
Бит/(Пиксели*Кадры) : 0.589
Временной код первого кадра : 00:00:00:00
Оригинал временного кода : Group of pictures header
Размер потока : 944 Мбайт (92%)
Закодированный размер потока оригинала : encoded by TMPGEnc Video Mastering Works 5 Version. 5.0.6.38
Библиотека кодирования : TMPGEnc Video Mastering Works 5 Version. 5.0.6.38
Основные цвета : BT.601 NTSC
Характеристики трансфера : BT.601
Коэффициенты матрицы : BT.601
Аудио #1
Идентификатор : 189 (0xBD)-128 (0x80)
Формат : AC-3
Формат/Информация : Audio Coding 3
Расширение режима : CM (complete main)
Параметр Endianness формата : Big
Режим смешивания : DVD-Video
Продолжительность : 21 м.
Вид битрейта : Постоянный
Битрейт : 192 Кбит/сек
Каналы : 2 канала
Расположение каналов : Front: L R
Частота : 48,0 КГц
Битовая глубина : 16 бит
Метод сжатия : С потерями
Размер потока : 29,7 Мбайт (3%)
Аудио #2
Идентификатор : 189 (0xBD)-129 (0x81)
Формат : AC-3
Формат/Информация : Audio Coding 3
Расширение режима : CM (complete main)
Параметр Endianness формата : Big
Режим смешивания : DVD-Video
Продолжительность : 21 м.
Вид битрейта : Постоянный
Битрейт : 192 Кбит/сек
Каналы : 2 канала
Расположение каналов : Front: L R
Частота : 48,0 КГц
Битовая глубина : 16 бит
Метод сжатия : С потерями
Размер потока : 29,7 Мбайт (3%)
Скриншоты меню
Скриншоты
Download
Сайт не распространяет и не хранит электронные версии произведений, а лишь предоставляет доступ к создаваемому пользователями каталогу ссылок на торрент-файлы, которые содержат только списки хеш-сумм
Как скачивать? (для скачивания .torrent файлов необходима регистрация)
[Профиль]  [ЛС] 

perrelcin

Moderator

Стаж: 11 лет 2 месяца

Сообщений: 2907

perrelcin · 15-Июл-19 14:14 (спустя 12 часов)

Custom без инф. по сборке
# сомнительно

[Профиль]  [ЛС] 

bot · 15-Июл-19 14:14 (спустя 21 сек.)

Тема была перенесена из форума DVD Video в форум Азиатские фильмы (DVD Video)
perrelcin
 
 
Ответить
Loading...
Error