(Vocal Jazz, Traditional Pop, Cabaret) Eartha Kitt - Four Classic Albums (That Bad Eartha / Down To Eartha / Thursdays Child / St. Louis Blues) - 2009, FLAC (image+.cue), lossless

Страницы:  1

Ответить
Автор
Сообщение

Dementio81

Top Seed 03* 160r

Стаж: 7 лет 6 месяцев

Сообщений: 250

Dementio81 · 18-Май-12 18:58 (7 лет 2 месяца назад, ред. 19-Май-12 08:14)

Eartha Kitt / Four Classic Albums (That Bad Eartha / Down To Eartha / Thursdays Child / St. Louis Blues)
Жанр: Vocal Jazz, Traditional Pop, Cabaret
Страна-производитель диска: UK
Год издания: 2009
Издатель (лейбл): Avid
Номер по каталогу: AMSC 970
Страна: USA
Аудиокодек: FLAC (*.flac)
Тип рипа: image+.cue
Битрейт аудио: lossless
Продолжительность: 152:04
Источник (релизер): собственный рип
Наличие сканов в содержимом раздачи: да
Компиляция, включающая 4 ранних альбома певицы:
-That Bad Eartha [1953] (CD1: 1-12)
-Down To Eartha [1955] (CD1: 13-24)
-Thursday's Child [1956] (CD2: 2-13)
-St. Louis Blues [1958] (CD2: 14-25)
+ бонус-треки (CD1: 25,26 CD2: 1, 26, 27)
Треклист:
Треклист CD1
1. I Want to be Evil
2. C'est Si Bon
3. Angelitos Negros
4. Avril au Portugal (The Whispring Serenade)
5. Let s Do It (Lets Fall In Love)
6. My Heart Belongs to Daddy
7. Uska Dara (A Turkish Tale)
8. African Lullaby
9. Mountain High, Valley Low
10.Lilac Wine
11.Under the Bridges of Paris
12.Smoke Gets In Your Eyes
13.I Wantcha Around
14.Do You Remember?
15.Looking For A Boy
16. I've Got That Lovin Bug Itch
17. Oh John! (Please Dont Kiss Me)
18. Strangers in the Starlight
19. The Day that the Circus Left Town
20. Aprиs Moi
21. The Heel
22. Mambo De Paree
23. My Heart s Delight
24. Hey Jacque
25. Annie Doesn't Live Here Anymore
26. Somebody Bad Stole de Wedding Bell (Whos Got de Ding Dong?)
Треклист CD2
1. Santa Baby
2. Fascinating Man
3. Mademoiselle Kitt
4. Oggere
5. No Importa Si Menti
6. Lisbon Antigua (In Old Lisbon)
7. Just an Old-Fashioned Girl
8. Le Danseur de Charleston
9. Lazy Afternoon
10. Jonny
11. If I Cant Take It With Me When I Go
12. Thursday's Child
13. Lullaby of Birdland
14. St. Louis Blues
15. Beale Street Blues
16. Chantez Les Bas (Sing Em Low)
17. Hesitating Blues
18. Steal Away
19. Careless Love
20. Atlanta Blues (Make Me One Pallet on Your Floor)
21. Long Gone (from Bowling Green)
22. Hist the Window, Noah
23. Yellow Dog Blues
24. Friendless Blues
25. The Memphis Blues
26. Put More Wood on the Fire
27. This Year s Santa Baby
Лог создания рипа CD1
Exact Audio Copy V1.0 beta 2 from 29. April 2011
EAC extraction logfile from 16. May 2012, 18:17
Eartha Kitt / Four Classic Albums CD1
Used drive : _NEC DVD_RW ND-3551A Adapter: 0 ID: 0
Read mode : Secure
Utilize accurate stream : Yes
Defeat audio cache : Yes
Make use of C2 pointers : No
Read offset correction : 48
Overread into Lead-In and Lead-Out : No
Fill up missing offset samples with silence : Yes
Delete leading and trailing silent blocks : No
Null samples used in CRC calculations : Yes
Used interface : Native Win32 interface for Win NT & 2000
Used output format : User Defined Encoder
Selected bitrate : 128 kBit/s
Quality : High
Add ID3 tag : No
Command line compressor : D:\Program Files\Exact Audio Copy\Flac\flac.exe
Additional command line options : -V -8 -T "Date=%year%" -T "Genre=%genre%" %source%
TOC of the extracted CD
Track | Start | Length | Start sector | End sector
---------------------------------------------------------
1 | 0:00.00 | 3:33.18 | 0 | 15992
2 | 3:33.18 | 3:00.42 | 15993 | 29534
3 | 6:33.60 | 3:28.14 | 29535 | 45148
4 | 10:01.74 | 2:54.69 | 45149 | 58267
5 | 12:56.68 | 3:06.42 | 58268 | 72259
6 | 16:03.35 | 3:03.63 | 72260 | 86047
7 | 19:07.23 | 3:10.13 | 86048 | 100310
8 | 22:17.36 | 2:55.68 | 100311 | 113503
9 | 25:13.29 | 2:38.54 | 113504 | 125407
10 | 27:52.08 | 3:46.36 | 125408 | 142393
11 | 31:38.44 | 2:44.70 | 142394 | 154763
12 | 34:23.39 | 3:05.63 | 154764 | 168701
13 | 37:29.27 | 2:33.66 | 168702 | 180242
14 | 40:03.18 | 3:36.23 | 180243 | 196465
15 | 43:39.41 | 3:06.25 | 196466 | 210440
16 | 46:45.66 | 2:27.06 | 210441 | 221471
17 | 49:12.72 | 2:49.63 | 221472 | 234209
18 | 52:02.60 | 2:27.03 | 234210 | 245237
19 | 54:29.63 | 3:20.21 | 245238 | 260258
20 | 57:50.09 | 2:49.10 | 260259 | 272943
21 | 60:39.19 | 2:49.46 | 272944 | 285664
22 | 63:28.65 | 2:56.13 | 285665 | 298877
23 | 66:25.03 | 2:20.42 | 298878 | 309419
24 | 68:45.45 | 2:42.45 | 309420 | 321614
25 | 71:28.15 | 2:53.09 | 321615 | 334598
26 | 74:21.24 | 2:47.53 | 334599 | 347176
Range status and errors
Selected range
Filename C:\RIP\Eartha Kitt - Four Classic Albums CD1.wav
Peak level 97.6 %
Extraction speed 3.1 X
Range quality 100.0 %
Test CRC D3F7C14F
Copy CRC D3F7C14F
Copy OK
No errors occurred
AccurateRip summary
Track 1 not present in database
Track 2 not present in database
Track 3 not present in database
Track 4 not present in database
Track 5 not present in database
Track 6 not present in database
Track 7 not present in database
Track 8 not present in database
Track 9 not present in database
Track 10 not present in database
Track 11 not present in database
Track 12 not present in database
Track 13 not present in database
Track 14 not present in database
Track 15 not present in database
Track 16 not present in database
Track 17 not present in database
Track 18 not present in database
Track 19 not present in database
Track 20 not present in database
Track 21 not present in database
Track 22 not present in database
Track 23 not present in database
Track 24 not present in database
Track 25 not present in database
Track 26 not present in database
None of the tracks are present in the AccurateRip database
End of status report
==== Log checksum 9C4AE05109EF7CCBBE2D31D1D668059402B6D07AF9F1589510662DD74B8B13F7 ====
Лог создания рипа CD2
Exact Audio Copy V1.0 beta 2 from 29. April 2011
EAC extraction logfile from 16. May 2012, 20:39
Eartha Kitt / Four Classic Albums CD 2
Used drive : _NEC DVD_RW ND-3551A Adapter: 0 ID: 0
Read mode : Secure
Utilize accurate stream : Yes
Defeat audio cache : Yes
Make use of C2 pointers : No
Read offset correction : 48
Overread into Lead-In and Lead-Out : No
Fill up missing offset samples with silence : Yes
Delete leading and trailing silent blocks : No
Null samples used in CRC calculations : Yes
Used interface : Native Win32 interface for Win NT & 2000
Used output format : User Defined Encoder
Selected bitrate : 128 kBit/s
Quality : High
Add ID3 tag : No
Command line compressor : D:\Program Files\Exact Audio Copy\Flac\flac.exe
Additional command line options : -V -8 -T "Date=%year%" -T "Genre=%genre%" %source%
TOC of the extracted CD
Track | Start | Length | Start sector | End sector
---------------------------------------------------------
1 | 0:00.00 | 3:31.18 | 0 | 15842
2 | 3:31.18 | 2:28.16 | 15843 | 26958
3 | 5:59.34 | 2:33.51 | 26959 | 38484
4 | 8:33.10 | 3:23.54 | 38485 | 53763
5 | 11:56.64 | 2:52.19 | 53764 | 66682
6 | 14:49.08 | 2:16.55 | 66683 | 76937
7 | 17:05.63 | 2:56.12 | 76938 | 90149
8 | 20:02.00 | 2:37.24 | 90150 | 101948
9 | 22:39.24 | 2:24.46 | 101949 | 112794
10 | 25:03.70 | 2:55.12 | 112795 | 125931
11 | 27:59.07 | 2:32.64 | 125932 | 137395
12 | 30:31.71 | 4:01.67 | 137396 | 155537
13 | 34:33.63 | 2:57.58 | 155538 | 168870
14 | 37:31.46 | 2:48.47 | 168871 | 181517
15 | 40:20.18 | 3:15.37 | 181518 | 196179
16 | 43:35.55 | 2:55.20 | 196180 | 209324
17 | 46:31.00 | 3:31.13 | 209325 | 225162
18 | 50:02.13 | 2:38.71 | 225163 | 237083
19 | 52:41.09 | 3:17.02 | 237084 | 251860
20 | 55:58.11 | 2:43.28 | 251861 | 264113
21 | 58:41.39 | 3:47.68 | 264114 | 281206
22 | 62:29.32 | 2:00.33 | 281207 | 290239
23 | 64:29.65 | 2:27.55 | 290240 | 301319
24 | 66:57.45 | 2:52.05 | 301320 | 314224
25 | 69:49.50 | 3:31.22 | 314225 | 330071
26 | 73:20.72 | 2:04.44 | 330072 | 339415
27 | 75:25.41 | 3:18.02 | 339416 | 354267
Range status and errors
Selected range
Filename C:\RIP\Eartha Kitt - Four Classic Albums CD 2.wav
Peak level 93.2 %
Extraction speed 3.1 X
Range quality 100.0 %
Test CRC C01E4C91
Copy CRC C01E4C91
Copy OK
No errors occurred
AccurateRip summary
Track 1 not present in database
Track 2 not present in database
Track 3 not present in database
Track 4 not present in database
Track 5 not present in database
Track 6 not present in database
Track 7 not present in database
Track 8 not present in database
Track 9 not present in database
Track 10 not present in database
Track 11 not present in database
Track 12 not present in database
Track 13 not present in database
Track 14 not present in database
Track 15 not present in database
Track 16 not present in database
Track 17 not present in database
Track 18 not present in database
Track 19 not present in database
Track 20 not present in database
Track 21 not present in database
Track 22 not present in database
Track 23 not present in database
Track 24 not present in database
Track 25 not present in database
Track 26 not present in database
Track 27 not present in database
None of the tracks are present in the AccurateRip database
End of status report
==== Log checksum 46ABDB81E1C748EE69D35706151AA343FCABDA1993FC09013EB2189A3784BF2E ====
Об альбоме (сборнике)
Eartha Kitt recorded for RCA Victor Records from 1953 to 1957, an association that produced five albums and assorted singles. The bulk of this material is contained on this two-CD set from the British reissue label Avid, which takes advantage of the 50-year copyright limit on recordings in Europe to assemble the collection, mastered from old records, without having to take the trouble to get permission or pay a licensing fee. (Sony BMG continues to claim copyright on the material in the U.S.). The first of the four "classic" albums to be included is what is referred to the as the "American version" of That Bad Eartha. It might be more accurate to describe it as the 12" LP version of That Bad Eartha, which differed considerably from the initial ten-inch LP version. Back in the early 1950s, the ten-inch LP, containing eight tracks, was the industry standard, and RCA released two Kitt albums in that format, RCA Victor Presents Eartha Kitt and That Bad Eartha, in 1953. By the middle of the decade, however, the 12-inch LP supplanted its shorter cousin, and RCA released an album called That Bad Eartha in 1955 in that format. Confusingly, it actually contained the eight tracks from RCA Victor Presents Eartha Kitt plus only four of the eight tracks from the ten-inch version of That Bad Eartha. That is the "American version" found here. Next come the 12 tracks that made up Kitt's 1955 album, Down to Eartha. After a couple of non-LP singles tracks end the first disc, the second begins with Kitt's biggest hit, "Santa Baby," followed by her 1956 album Thursday's Child and her 1958 album St. Louis Blues, then a couple of more non-LP singles tracks bring the collection to an end. In the material, Kitt establishes herself as an exotic, sophisticated chanteuse, capable of singing in many languages and styles. Several songs exploit her promiscuous gold-digger image. The St. Louis Blues tracks take a different tack, however. The album was recorded to commemorate Kitt's appearance in a film biography of W.C. Handy by the same name, and on it she sang mostly Handy-composed blues songs backed by a Dixieland jazz band. This material is not really her forte, but she handles it capably enough. Kitt did a lot more recording after this, but these are the tracks that established her persona, and her most commercially successful performances are here.
William Ruhlmann, AMG
Состав
That Bad Eartha/Down To Eartha:
-Henry Rene & his orchestra
Thursday's Child:
-Henry Rene & his orchestra
-Joe Reisman & his orchestra
St. Louis Blues:
-Shorty Rogers & his Giants
-The Jester Hairston Choir
Download
Для скачивания .torrent файлов необходима регистрация
Сайт не распространяет и не хранит электронные версии произведений, а лишь предоставляет доступ к создаваемому пользователями каталогу ссылок на торрент-файлы, которые содержат только списки хеш-сумм
[Профиль]  [ЛС] 

GrBear

VIP (Заслуженный)

Стаж: 12 лет 1 месяц

Сообщений: 8608

GrBear · 20-Май-12 16:00 (спустя 1 день 21 час)

Dementio81
Большое спасибо!
[Профиль]  [ЛС] 

oriental_64

Стаж: 7 лет 8 месяцев

Сообщений: 164


oriental_64 · 16-Июн-19 03:20 (спустя 7 лет)

Thanks for sharing!
[Профиль]  [ЛС] 
 
Ответить
Loading...
Error