(Vocal Jazz) Julie London - Collection, 13 Releases (1955-1969) - 1991-2006, FLAC (image/tracks+.cue), lossless

Страницы:  1

Ответить
Автор
Сообщение

papa1954

Top Seed 09* 10240r

Стаж: 12 лет 4 месяца

Сообщений: 16944

papa1954 · 01-Ноя-12 15:20 (6 лет 8 месяцев назад, ред. 16-Янв-14 17:21)

Julie London – Collection, 13 Releases (1955-1969)

Жанр: Vocal Jazz
Годы издания: 1991-2006
Аудиокодек: FLAC (*.flac)
Тип рипа: image/tracks+.cue
Битрейт аудио: lossless
Продолжительность: под спойлерами
Источник: net
Наличие сканов в содержимом раздачи: присутствуют
 
 
 
Julie Is Her Name (1955) / Julie Is Her Name, Vol. 2 (1958)
Страна-производитель диска: USA
Год издания: 1992
Издатель (лейбл): EMI Records/Liberty
Номер по каталогу: 0777-7-99804-2 0
Тип рипа: image+.cue
Продолжительность: 58:19
Источник: eMule
Наличие сканов в содержимом раздачи: да
Треклист:
Julie Is Her Name
01. Cry Me A River (2:59)
02. I Should Care (3:16)
03. I'm In The Mood For Love (2:29)
04. I'm Glad There Is You (2:26)
05. Can't Help Lovin' That Man (3:10)
06. I Love You (1:52)
07. Say It Isn't So (2:01)
08. It Never Entered My Mind (2:24)
09. Easy Street (3:13)
10. 'S Wonderful (1:34)
11. No Moon At All (1:53)
12. Laura (1:44)
13. Gone With The Wind (2:08)
Julie Is Her Name, Vol. 2
14. Blue Moon (2:31)
15. What Is This Thing Called Love (1:47)
16. How Long Has This Been Going On (2:47)
17. Too Good To Be True (2:42)
18. Spring Is Here (2:08)
19. Goody Goody (2:18)
20. The One I Love Belongs To Somebody Else (2:04)
21. If I'm Lucky (2:18)
22. Hot Toddy (1:49)
23. Little White Lies (2:50)
24. I Guess I'll Have To Change My Plan (1:50)
25. I Got Lost In His Arms (2:06)
Personnel on tracks #1-13:
Julie London - vo
Barney Kessel - g
Ray Leatherwood - b
Personnel on tracks #14-25:
Julie London - vo
Howard Roberts - g
Red Mitchell - b
Rec.: 1955 (#1-13) and 1958 (#14-25).
Lonely Girl (1956) / Make Love To Me (1957)
Год издания: 2002
Издатель (лейбл): EMI Records/Liberty
Номер по каталогу: 7243 5 41668 2 2
Тип рипа: image+.cue
Продолжительность: 58:34
Риппер: asdfgh
Наличие сканов в содержимом раздачи: да
Треклист:
Lonely Girl
01. Lonely Girl (2:35)
02. Fools Rush In (2:11)
03. Moments Like This (2:43)
04. I Lost My Sugar In Salt Lake City (2:39)
05. It's The Talk Of The Town (2:39)
06. When Your Lover Has Gone (1:58)
07. Don't Take Your Love From Me (2:47)
08. Where Or When (2:40)
09. All Alone (1:53)
10. Mean To Me (2:15)
11. How Deep Is The Ocean (2:13)
12. Remember (1:52)
Make Love To Me
13. If I Could Be With You (2:19)
14. It's Good To Want You Bad (2:35)
15. Go Slow (2:16)
16. A Room With A View (2:57)
17. The Nearness Of You (2:24)
18. Alone Together (2:06)
19. I Wanna Be Loved (2:10)
20. Snuggled On Your Shoulder (3:45)
21. You're My Thrill (1:59)
22. Lover Man (2:37)
23. Body And Soul (2:30)
24. Make Love To Me (2:30)
Personnel on tracks #1-12:
Julie London - vo
Al Viola - g
Personnel on tracks #13-24:
Julie London - vo
Russ Garcia & His Orchestra
Rec.: Hollywood, CA, April 1955 (#1-12); 1957 (#13-24).
About The Blues (1957) [mono, bonus tracks]
Год издания: 2002
Издатель (лейбл): Capitol Jazz/Liberty
Номер по каталогу: 7243 5 38695 2 6
Тип рипа: tracks+.cue
Продолжительность: 45:53
Источник: What.cd
Наличие сканов в содержимом раздачи: сетевые
Треклист:
01. Basin Street Blues (3:06)
02. I Gotta A Right To Sing The Blues (2:59)
03. A Nightingale Can Sing The Blues (3:11)
04. Get Set For The Blues (2:45)
05. Invitation To The Blues (2:52)
06. Bye Bye Blues (1:41)
07. Meaning Of The Blues (2:59)
08. About The Blues (3:09)
09. Sunday Blues (2:57)
10. The Blues Is All I Ever Had (2:53)
11. Blues In The Night (3:42)
12. Bouquet Of Blues (2:58)
Bonus tracks:
13. Baby, Baby, All The Time (2:25)
14. Shadow Woman (2:39)
15. Meaning Of The Blues (45 single take) (2:59)
16. Dark (2:39)
Personnel:
Julie London - vo
Russ Garcia - arr, cond (#1-15)
Spencer-Hagan Orchestra (#16)
Rec.: Radio Recorders, Los Angeles, CA, 1956-1957.
Julie (1957) / Love On The Rocks (1963)
Год издания: 2006
Издатель (лейбл): EMI Records/Liberty
Номер по каталогу: 0946 3 53026 2 2
Тип рипа: image+.cue
Продолжительность: 64:05
Риппер: asdfgh
Наличие сканов в содержимом раздачи: да
Треклист:
Julie
01. Somebody Loves Me (3:02)
02. Dream Of You (2:42)
03. Daddy (2:18)
04. Bye Bye Blackbird (2:33)
05. Free And Easy (2:19)
06. All My Life (3:06)
07. When The Red Red Robin Comes A Bob Bobobbin' Along (1:43)
08. Midnight Sun (2:29)
09. You're Getting To Be A Habit With Me (2:30)
10. Don'cha Go 'Way Mad (2:38)
11. (Back Home) In Indiana (2:54)
12. For You (2:42)
Love On The Rocks
13. Love On The Rocks (2:39)
14. Guess Who I Saw Today (3:08)
15. Where Are You (2:35)
16. How Did He Look (2:37)
17. What's New (2:37)
18. A Cottage For Sale (2:33)
19. The End Of A Love Affair (2:18)
20. I'll Be Seeing You (2:08)
21. Where Did The Gentleman Go (2:56)
22. Don't Worry 'Bout Me (2:37)
23. The Man That Got Away (3:37)
24. Willow Weep For Me (3:22)
Personnel on tracks #1-12:
Julie London - vo
Jimmy Rowles Orchestra
Personnel on tracks #13-24:
Julie London - vo
Pete King - arr, cond
Rec.: Liberty studios, Hollywood, CA, 1957 (#1-12) and 1963 (#13-24)
Swing Me An Old Song (1959)
Страна-производитель диска: Japan
Год издания: 1991
Издатель (лейбл): EMI/Liberty
Номер по каталогу: TOCJ-5399
Тип рипа: image+.cue
Продолжительность: 32:07
Источник: net
Наличие сканов в содержимом раздачи: да
Треклист:
01. Comin' Thru The Rye (2:37)
02. Cuddle Up A Little Closer (2:12)
03. After The Ball (2:46)
04. Be My Little Baby Bumble Bee (3:27)
05. Camptown Races (3:24)
06. Old Folks At Home (2:46)
07. Downtown Strutters' Ball (2:34)
08. How Come You Do Me Like You Do (2:33)
09. Row, Row, Row (2:24)
10. By The Beautiful Sea (2:16)
11. Bill Bailey, Won't You Please Come Home? (1:52)
12. Three O'Clock In The Morning (3:16)
Personnel:
Julie London - vo
Jimmy Rowles and His Orchestra
Rec.: Los Angeles, Spring 1959.
Julie At Home (1960) / Around Midnight (1960)
Страна-производитель диска: England
Год издания: 1996
Издатель (лейбл): EMI Records/Liberty
Номер по каталогу: 7243 8 54542 2 6
Тип рипа: tracks+.cue
Продолжительность: 63:51
Источник: What.cd
Наличие сканов в содержимом раздачи: сетевые
Треклист:
Julie... At Home
01. You'd Be So Nice To Come Home To (2:15)
02. Lonesome Road (2:24)
03. They Didn't Believe Me (2:19)
04. By Myself (1:42)
05. The Thrill Is Gone (3:21)
06. You've Changed (2:45)
07. Goodbye (2:23)
08. Sentimental Journey (2:26)
09. Give Me The Simple Life (2:03)
10. You Stepped Out Of A Dream (2:13)
11. Let There Be Love (2:03)
12. Everything Happens To Me (3:39)
Around Midnight
13. Around Midnight (2:54)
14. Lonely In Paris (2:11)
15. Misty (3:11)
16. Black Coffee (2:58)
17. Luch Life (1:41)
18. In The Wee Small Hours Of The Morning (2:49)
19. Don't Smoke In Bed (2:25)
20. You And The Night And The Music (2:40)
21. Something Cool (4:38)
22. How About Me (3:07)
23. But Not For Me (2:24)
24. The Party's Over (3:17)
Personnel on tracks #1-12:
Julie London - vo
Al Viola - g
Emil Richards - vib
bass, drums - ?
Personnel on tracks #13-24:
Julie London - vo
Dick Reynolds - arr, cond
Rec.: 1960.
Latin In A Satin Mood (1962)
Страна-производитель диска: Japan
Год издания: 1991
Издатель (лейбл): EMI Records/Liberty
Номер по каталогу: TOCJ-5390
Тип рипа: image+.cue
Продолжительность: 30:38
Источник: eMule
Наличие сканов в содержимом раздачи: да
Треклист:
01. Frenesi (2:30)
02. Be Mine Tonight (Noche De Ronda) (2:38)
03. Yours (Quierme Mucho) (2:44)
04. Besame Mucho (2:12)
05. Adios (2:36)
06. Sway (Quien Sera) (2:39)
07. Perfidia (2:34)
08. Come Closer To Me (Acercate Mas) (1:59)
09. Amor (2:47)
10. Magic Is The Moonlight (Te Quiero Dijiste) (2:27)
11. You Belong To My Heart (Solamente Una Vez) (2:54)
12. Vaya Con Dios (2:41)
Personnel:
Julie London - vo
Ernie Freeman - arr, cond
Rec.: 1962.
Love Letters (1962) / Feeling Good (1965)
Год издания: 2004
Издатель (лейбл): EMI Records/Liberty
Номер по каталогу: 7243 8 66902 2 7
Тип рипа: image+.cue
Продолжительность: 60:00
Источник: eMule
Наличие сканов в содержимом раздачи: да
Треклист:
Love Letters
01. I Love You Porgy (2:54)
02. And That Reminds Me (3:02)
03. Love Letters (2:42)
04. Broken-Hearted Melody (2:07)
05. The Second Time Around (2:24)
06. Fascination (2:38)
07. What A Difference A Day Made (2:35)
08. Never On Sunday (2:39)
09. Hey There (2:10)
10. All The Way (2:20)
11. I Miss You So (2:00)
12. Com On-A My House (2:20)
Feeling Good
13. My Kind Of Town (3:02)
14. Girl Talk (2:42)
15. King Of The Road (2:28)
16. I Bruise Easily (3:47)
17. Feeling Good (2:58)
18. Watermelon Man (2:38)
19. She's Just A Quiet Girl (Mae) (2:42)
20. Summertime (3:11)
21. Hello Dolly (3:00)
22. Won't Someone Please Belong To Me (3:41)
Personnel on tracks #1-12:
Julie London - vo
unknown orchestra
Personnel on tracks #13-22:
Julie London - vo
Jack Wilson - p, org
Teddy Edwards - sax
John Gray - g
Jimmy Bond - b
Earl Palmer - d
The Gerald Wilson Big Band
Rec.: 1962 (#1-12) and 1965 (#13-22).
Sophisticated Lady (1962) / For The Night People (1966)
Год издания: 1998
Издатель (лейбл): EMI Records/Liberty
Номер по каталогу: 7243 4 94992 2 5
Тип рипа: tracks+.cue
Продолжительность: 70:22
Источник: What.cd
Наличие сканов в содержимом раздачи: да
Треклист:
Sophisticated Lady
01. Sophisticated Lady (2:37)
02. Blame It On My Youth (2:36)
03. Make It Another Old-Fashioned Please (2:33)
04. You're Blase (3:13)
05. Bewitched (2:56)
06. Spring Can Really Hang You Up The Most (3:50)
07. Remind Me (3:14)
08. When She Makes Music (2:43)
09. When The World Was Young (4:43)
10. If I Should Lose You (2:50)
11. Where Am I To Go (2:56)
12. Absent Minded Me (2:24)
For The Night People
13. Won't You Come Home Bill Bailey (2:26)
14. I Got It Bad (And That Ain't Good) (3:59)
15. Saturday Night (Is The Loneliest Night Of The Week) (2:30)
16. God Bless The Child (3:18)
17. Am I Blue? (3:32)
18. Dream (2:28)
19. Here's That Rainy Day (3:16)
20. When The Sun Comes Out (3:14)
21. Can't Get Out Of This Mood (3:25)
22. I Hadn't Anyone Till You (2:52)
23. I'll Never Smile Again (2:47)
Personnel on tracks #1-12:
Julie London - vo
unknown orchestra
Personnel on tracks #13-23:
Julie London - vo
Don Bagley - arr
Rec.: 1962 (#1-12) and 1966 (#13-23).
The End Of The World (1963) / Nice Girls Don't Stay For Breakfast (1967)
Страна-производитель диска: England
Год издания: 1997
Издатель (лейбл): EMI Records/Liberty
Номер по каталогу: 7243 8 56059 2 5
Тип рипа: image+.cue
Продолжительность: 65:42
Источник: eMule
Наличие сканов в содержимом раздачи: да
Треклист:
The End Of The World
01. The End Of The World (2:47)
02. I Wanna Be Around (2:00)
03. Call Me Irresponsible (2:49)
04. Our Day Will Come (2:22)
05. (I Left My Heart) In San Francisco (2:49)
06. Fly Me To The Moon (In Other Words) (2:35)
07. Days Of Wine And Roses (2:53)
08. I Remember You (2:36)
09. My Coloring Book (3:32)
10. Chances Are (3:01)
11. Desafinado (Slightly Out Of Tune) (2:06)
12. The Good Life (2:55)
Nice Girls Don't Stay For Breakfast
13. Nice Girls Don't Stay For Breakfast (2:26)
14. When I Grow Too Old To Dream (2:53)
15. I've Got A Crush On You (2:14)
16. Everything I Have Is Yours (3:05)
17. You Made Me Love You (2:18)
18. Baby, Won't You Please Come Home (2:12)
19. I Didn't Know What Time It Was (2:50)
20. Give A Little Whistle (3:07)
21. I Surrender, Dear (3:41)
22. You Go To My Head (3:07)
23. There Will Never Be Another You (3:16)
24. Mickey Mouse March (2:09)
Personnel on tracks #1-12:
Julie London - vo
Ernie Freeman - arr
Personnel on tracks #13-24:
Julie London - vo
Don Bagley - arr
Rec.: 1963 (#1-12) and 1967 (#13-24).
All Through The Night (1965)
Страна-производитель диска: Japan
Год издания: 1990
Издатель (лейбл): EMI Records/Liberty
Номер по каталогу: TOCJ-5357
Тип рипа: image+.cue
Продолжительность: 32:53
Источник: eMule
Наличие сканов в содержимом раздачи: да
Треклист:
01. I've Got You Under My Skin (3:05)
02. You Do Something To Me (2:19)
03. Get Out Of Town (2:59)
04. All Through The Night (4:35)
05. So In Love With You (4:08)
06. At Long Last Love (3:29)
07. Easy To Love (2:30)
08. My Heart Belongs To Daddy (2:49)
09. Ev'ry Time We Say Goodbye (4:20)
10. In The Still Of The Night (2:40)
Personnel:
Julie London - vo
Bud Shank - as, fl
Russ Freeman - p, arr
Joe Pass - g
Monty Budwig - b
Colin Bailey - d
Rec.: 1965.
Yummy, Yummy, Yummy (1969)
Страна-производитель диска: USA
Год издания: 2005
Издатель (лейбл): Collectors' Choice Music/EMI/Liberty
Номер по каталогу: CCM-533-2/72435-60986-2-6
Тип рипа: tracks+.cue
Продолжительность: 34:03
Источник: What.cd
Наличие сканов в содержимом раздачи: сетевые
Треклист:
01. Stoned Soul Picnic (3:31)
02. Like To Get To Know You (2:49)
03. Light My Fire (3:23)
04. It's Nice To Be With You (2:55)
05. Sunday Mornin' (3:08)
06. Hushabye Mountain (3:06)
07. Mighty Quinn (Quinn The Eskimo) (2:00)
08. Come To Me Slowly (2:33)
09. And I Love Him (2:06)
10. Without Him (2:54)
11. Yummy, Yummy, Yummy (2:58)
12. Louie Louie (2:41)
Personnel:
Julie London - vo
Tommy Oliver - arr, cond
Rec.: November 1968.
Twin Best Now (2 CD) (1992)
Страна-производитель диска: Japan
Год издания: 1992
Издатель (лейбл): EMI Records/Liberty
Номер по каталогу: TOCP-7303•04
Тип рипа: image+.cue
Продолжительность: 55:21 / 53:09
Источник: eMule
Наличие сканов в содержимом раздачи: да
Disc 1
01. I Left My Heart In San Francisco (2:53)
02. Sentimental Journey (2:29)
03. Misty (3:13)
04. Cry Me A River (2:59)
05. Fly Me To The Mooon (2:37)
06. Besame Mucho (2:11)
07. A Taste Of Honey (3:23)
08. Summertime (3:12)
09. You And The Night And The Music (2:42)
10. Theme From A Summer Place (2:24)
11. The Boy From Ipamena (2:39)
12. As Time Goes By (3:13)
13. The Days Of Wine And Roses (2:55)
14. Slightly Out Of Tune (Desafinado) (2:08)
15. What Is This Thingh Called Love (1:48)
16. You'd Be So Nice To Come Home To (2:16)
17. Blues In The Night (3:54)
18. Don't Smoke In Bed (2:28)
19. Black Coffee (3:00)
20. 'Round Midnight (2:52)
Disc 2
01. Love Letters (2:55)
02. Never On Sunday (2:28)
03. Come On-A My House (2:40)
04. But Not For Me (2:27)
05. When I Fall In Love (3:24)
06. The End Of The World (2:49)
07. Sway (Quien Sera) (2:38)
08. I'm In The Mood For Love (2:31)
09. Fascination (2:00)
10. What's New (2:38)
11. Love For Sale (3:05)
12. Charade (2:29)
13. Vaya Con Dios (2:42)
14. More (2:43)
15. Hello, Dolly! (3:02)
16. I'Ve Got You Under My Skin (3:04)
17. Dream (2:27)
18. Amor (2:46)
19. 'S Wonderful (1:35)
20. My Heart Belongs To Daddy (2:46)
Download
Для скачивания .torrent файлов необходима регистрация
Сайт не распространяет и не хранит электронные версии произведений, а лишь предоставляет доступ к создаваемому пользователями каталогу ссылок на торрент-файлы, которые содержат только списки хеш-сумм
[Профиль]  [ЛС] 

papa1954

Top Seed 09* 10240r

Стаж: 12 лет 4 месяца

Сообщений: 16944

papa1954 · 01-Ноя-12 15:21 (спустя 1 мин., ред. 06-Ноя-12 20:03)

Julie Is Her Name (1955) / Julie Is Her Name, Vol. 2 (1958)
Лог создания рипа
EAC Auslese-Logdatei vom 20. Mai 2007, 13:32 fьr CD
Julie London / Julie Is Her Name (Vols 1 & 2)
Benutztes Laufwerk : PLEXTOR CD-R PX-W4824A Adapter: 0 ID: 1
Lesemodus : Sicher mit KEINEM C2, Accurate Stream, Puffer abgeschaltet
Leseoffset Korrektur : 98
Ьberlesen in das Lead-In und Lead-Out : Nein
Benutztes Ausgabeformat : Interne WAV Routinen
44.100 Hz; 16 Bit; Stereo
Andere Einstellungen :
Fьlle fehlende Offsetsample mit Stille auf : Ja
Lцsche fьhrende und nachfolgende stille Blцcke : Nein
Installierte externe ASPI Schnittstelle
Bereichsstatus und Fehler
Gewдhlter Bereich
Dateiname Z:\release\Julie Is Her Name (Vols 1 & 2)\CDImage.wav
Spitzenpegel 99.1 %
Bereichsqualitдt 100.0 %
CRC A1A1BF8F
Kopie OK
Keine Fehler aufgetreten
Ende des Statusreports
Лог создания рипа ENGLISH
EAC extraction logfile from 20. May 2007, 13:32 for CD
Julie London / Julie Is Her Name (Vols 1 & 2)
Used drive : PLEXTOR CD-R PX-W4824A Adapter: 0 ID: 1
Read mode : Secure with NO C2, accurate stream, disable cache
Read offset correction : 98
Overread into Lead-In and Lead-Out : No
Used output format : Internal WAV Routines
44.100 Hz; 16 Bit; Stereo
Other options :
Fill up missing offset samples with silence : Yes
Delete leading and trailing silent blocks : No
Installed external ASPI interface
Range status and errors
Selected range
Z:\release\Julie Is Her Name (Vols 1 & 2)\CDImage.wav
Peak level 99.1 %
Range quality 100.0 %
CRC A1A1BF8F
Copy OK
No errors occured
End of status report
Содержание индексной карты (.CUE)
REM GENRE Jazz
REM DATE 1992
PERFORMER "Julie London"
TITLE "Julie Is Her Name (1955) / Julie Is Her Name Vol. 2 (1958)"
FILE "Julie London - Julie Is Her Name & Julie Is Her Name Vol. 2.flac" WAVE
TRACK 01 AUDIO
TITLE "Cry Me A River"
PERFORMER "Julie London"
INDEX 01 00:00:00
TRACK 02 AUDIO
TITLE "I Should Care"
PERFORMER "Julie London"
INDEX 00 02:57:03
INDEX 01 02:58:40
TRACK 03 AUDIO
TITLE "I'm In The Mood For Love"
PERFORMER "Julie London"
INDEX 00 06:13:50
INDEX 01 06:14:52
TRACK 04 AUDIO
TITLE "I'm Glad There Is You"
PERFORMER "Julie London"
INDEX 00 08:42:45
INDEX 01 08:43:62
TRACK 05 AUDIO
TITLE "Can't Help Lovin' That Man"
PERFORMER "Julie London"
INDEX 00 11:09:05
INDEX 01 11:10:15
TRACK 06 AUDIO
TITLE "I Love You"
PERFORMER "Julie London"
INDEX 00 14:19:51
INDEX 01 14:20:42
TRACK 07 AUDIO
TITLE "Say It Isn't So"
PERFORMER "Julie London"
INDEX 00 16:11:51
INDEX 01 16:12:45
TRACK 08 AUDIO
TITLE "It Never Entered My Mind"
PERFORMER "Julie London"
INDEX 00 18:12:21
INDEX 01 18:13:42
TRACK 09 AUDIO
TITLE "Easy Street"
PERFORMER "Julie London"
INDEX 00 20:36:70
INDEX 01 20:37:60
TRACK 10 AUDIO
TITLE "'S Wonderful"
PERFORMER "Julie London"
INDEX 00 23:49:46
INDEX 01 23:50:65
TRACK 11 AUDIO
TITLE "No Moon At All"
PERFORMER "Julie London"
INDEX 00 25:23:66
INDEX 01 25:24:60
TRACK 12 AUDIO
TITLE "Laura"
PERFORMER "Julie London"
INDEX 00 27:16:16
INDEX 01 27:17:27
TRACK 13 AUDIO
TITLE "Gone With The Wind"
PERFORMER "Julie London"
INDEX 00 29:00:12
INDEX 01 29:01:27
TRACK 14 AUDIO
TITLE "Blue Moon"
PERFORMER "Julie London"
INDEX 00 31:06:07
INDEX 01 31:09:35
TRACK 15 AUDIO
TITLE "What Is This Thing Called Love"
PERFORMER "Julie London"
INDEX 00 33:39:48
INDEX 01 33:40:67
TRACK 16 AUDIO
TITLE "How Long Has This Been Going On"
PERFORMER "Julie London"
INDEX 00 35:26:30
INDEX 01 35:27:55
TRACK 17 AUDIO
TITLE "Too Good To Be True"
PERFORMER "Julie London"
INDEX 00 38:12:71
INDEX 01 38:14:22
TRACK 18 AUDIO
TITLE "Spring Is Here"
PERFORMER "Julie London"
INDEX 00 40:54:57
INDEX 01 40:56:32
TRACK 19 AUDIO
TITLE "Goody Goody"
PERFORMER "Julie London"
INDEX 00 43:02:69
INDEX 01 43:04:37
TRACK 20 AUDIO
TITLE "The One I Love Belongs To Somebody Else"
PERFORMER "Julie London"
INDEX 00 45:21:35
INDEX 01 45:22:67
TRACK 21 AUDIO
TITLE "If I'm Lucky"
PERFORMER "Julie London"
INDEX 00 47:25:69
INDEX 01 47:27:25
TRACK 22 AUDIO
TITLE "Hot Toddy"
PERFORMER "Julie London"
INDEX 00 49:43:71
INDEX 01 49:45:20
TRACK 23 AUDIO
TITLE "Little White Lies"
PERFORMER "Julie London"
INDEX 00 51:32:50
INDEX 01 51:33:65
TRACK 24 AUDIO
TITLE "I Guess I'll Have To Change My Plan"
PERFORMER "Julie London"
INDEX 00 54:22:01
INDEX 01 54:23:37
TRACK 25 AUDIO
TITLE "I Got Lost In His Arms"
PERFORMER "Julie London"
INDEX 00 56:12:38
INDEX 01 56:13:25
Lonely Girl (1956) / Make Love To Me (1957)
Лог создания рипа
EAC extraction logfile from 7. August 2006, 20:24 for CD
Julie London / Lonely Girl / Make Love to Me
Used drive : PLEXTOR DVDR PX-716A Adapter: 4 ID: 1
Read mode : Secure with NO C2, accurate stream, disable cache
Read offset correction : 30
Overread into Lead-In and Lead-Out : No
Used output format : Internal WAV Routines
44.100 Hz; 16 Bit; Stereo
Other options :
Fill up missing offset samples with silence : Yes
Delete leading and trailing silent blocks : No
Installed external ASPI interface
Range status and errors
Selected range
Filename C:\Lonely Girl; Make Love to Me.wav
Peak level 86.3 %
Range quality 100.0 %
CRC 184CD9D7
Copy OK
No errors occured
End of status report
Содержание индексной карты (.CUE)
REM DATE 2002
REM GENRE Jazz
PERFORMER "Julie London"
TITLE "Lonely Girl (1956) / Make Love To Me (1957)"
FILE "Julie London - Lonely Girl & Make Love To Me.flac" WAVE
TRACK 01 AUDIO
TITLE "Lonely Girl"
PERFORMER "Julie London"
INDEX 00 00:00:00
INDEX 01 00:00:32
TRACK 02 AUDIO
TITLE "Fools Rush In"
PERFORMER "Julie London"
INDEX 00 02:32:62
INDEX 01 02:35:65
TRACK 03 AUDIO
TITLE "Moments Like This"
PERFORMER "Julie London"
INDEX 00 04:43:02
INDEX 01 04:47:25
TRACK 04 AUDIO
TITLE "I Lost My Sugar In Salt Lake City"
PERFORMER "Julie London"
INDEX 00 07:26:07
INDEX 01 07:30:05
TRACK 05 AUDIO
TITLE "It's The Talk Of The Town"
PERFORMER "Julie London"
INDEX 00 10:04:30
INDEX 01 10:08:55
TRACK 06 AUDIO
TITLE "When Your Lover Has Gone"
PERFORMER "Julie London"
INDEX 00 12:43:32
INDEX 01 12:47:50
TRACK 07 AUDIO
TITLE "Don't Take Your Love From Me"
PERFORMER "Julie London"
INDEX 00 14:41:25
INDEX 01 14:46:00
TRACK 08 AUDIO
TITLE "Where Or When"
PERFORMER "Julie London"
INDEX 00 17:29:55
INDEX 01 17:32:70
TRACK 09 AUDIO
TITLE "All Alone"
PERFORMER "Julie London"
INDEX 00 20:07:57
INDEX 01 20:13:17
TRACK 10 AUDIO
TITLE "Mean To Me"
PERFORMER "Julie London"
INDEX 00 22:01:22
INDEX 01 22:05:55
TRACK 11 AUDIO
TITLE "How Deep Is The Ocean"
PERFORMER "Julie London"
INDEX 00 24:15:37
INDEX 01 24:20:35
TRACK 12 AUDIO
TITLE "Remember"
PERFORMER "Julie London"
INDEX 00 26:30:20
INDEX 01 26:33:35
TRACK 13 AUDIO
TITLE "If I Could Be With You"
PERFORMER "Julie London"
INDEX 00 28:20:30
INDEX 01 28:25:65
TRACK 14 AUDIO
TITLE "It's Good To Want You Bad"
PERFORMER "Julie London"
INDEX 00 30:39:40
INDEX 01 30:45:07
TRACK 15 AUDIO
TITLE "Go Slow"
PERFORMER "Julie London"
INDEX 00 33:14:05
INDEX 01 33:20:05
TRACK 16 AUDIO
TITLE "A Room With A View"
PERFORMER "Julie London"
INDEX 00 35:31:55
INDEX 01 35:36:22
TRACK 17 AUDIO
TITLE "The Nearness Of You"
PERFORMER "Julie London"
INDEX 00 38:27:40
INDEX 01 38:33:02
TRACK 18 AUDIO
TITLE "Alone Together"
PERFORMER "Julie London"
INDEX 00 40:51:42
INDEX 01 40:56:60
TRACK 19 AUDIO
TITLE "I Wanna Be Loved"
PERFORMER "Julie London"
INDEX 00 43:00:07
INDEX 01 43:02:35
TRACK 20 AUDIO
TITLE "Snuggled On Your Shoulder"
PERFORMER "Julie London"
INDEX 00 45:06:65
INDEX 01 45:12:25
TRACK 21 AUDIO
TITLE "You're My Thrill"
PERFORMER "Julie London"
INDEX 00 48:51:62
INDEX 01 48:57:10
TRACK 22 AUDIO
TITLE "Lover Man"
PERFORMER "Julie London"
INDEX 00 50:51:65
INDEX 01 50:56:37
TRACK 23 AUDIO
TITLE "Body And Soul"
PERFORMER "Julie London"
INDEX 00 53:28:62
INDEX 01 53:33:62
TRACK 24 AUDIO
TITLE "Make Love To Me"
PERFORMER "Julie London"
INDEX 00 55:57:72
INDEX 01 56:04:00
About The Blues (1957) [mono, bonus tracks]
Лог создания рипа
Exact Audio Copy V0.99 prebeta 4 from 23. January 2008
EAC extraction logfile from 1. May 2009, 19:41
Julie London / About The Blues
Used drive : HL-DT-STDVDRAM GH15F Adapter: 1 ID: 0
Read mode : Secure
Utilize accurate stream : Yes
Defeat audio cache : Yes
Make use of C2 pointers : No
Read offset correction : 667
Overread into Lead-In and Lead-Out : No
Fill up missing offset samples with silence : Yes
Delete leading and trailing silent blocks : No
Null samples used in CRC calculations : Yes
Used interface : Native Win32 interface for Win NT & 2000
Gap handling : Appended to previous track
Used output format : Internal WAV Routines
Sample format : 44.100 Hz; 16 Bit; Stereo
TOC of the extracted CD
Track | Start | Length | Start sector | End sector
---------------------------------------------------------
1 | 0:00.00 | 3:06.20 | 0 | 13969
2 | 3:06.20 | 2:58.42 | 13970 | 27361
3 | 6:04.62 | 3:11.13 | 27362 | 41699
4 | 9:16.00 | 2:44.57 | 41700 | 54056
5 | 12:00.57 | 2:51.70 | 54057 | 66951
6 | 14:52.52 | 1:41.08 | 66952 | 74534
7 | 16:33.60 | 2:58.65 | 74535 | 87949
8 | 19:32.50 | 3:08.45 | 87950 | 102094
9 | 22:41.20 | 2:56.57 | 102095 | 115351
10 | 25:38.02 | 2:53.20 | 115352 | 128346
11 | 28:31.22 | 3:41.60 | 128347 | 144981
12 | 32:13.07 | 2:58.35 | 144982 | 158366
13 | 35:11.42 | 2:25.00 | 158367 | 169241
14 | 37:36.42 | 2:39.03 | 169242 | 181169
15 | 40:15.45 | 2:58.72 | 181170 | 194591
16 | 43:14.42 | 2:38.45 | 194592 | 206486
Track 1
Filename J:\Eac Rips\Julie London - 1957 - About The Blues\01 - Basin Street Blues.wav
Pre-gap length 0:00:02.00
Peak level 97.7 %
Track quality 99.9 %
Test CRC D89107EC
Copy CRC D89107EC
Track not present in AccurateRip database
Copy OK
Track 2
Filename J:\Eac Rips\Julie London - 1957 - About The Blues\02 - I Gotta Right To Sing The Blues.wav
Pre-gap length 0:00:02.70
Peak level 97.7 %
Track quality 100.0 %
Test CRC AACC00DC
Copy CRC AACC00DC
Track not present in AccurateRip database
Copy OK
Track 3
Filename J:\Eac Rips\Julie London - 1957 - About The Blues\03 - A Nightingale Can Sing The Blues.wav
Pre-gap length 0:00:02.33
Peak level 97.7 %
Track quality 100.0 %
Test CRC 819CEF54
Copy CRC 819CEF54
Track not present in AccurateRip database
Copy OK
Track 4
Filename J:\Eac Rips\Julie London - 1957 - About The Blues\04 - Get Set For The Blues.wav
Pre-gap length 0:00:02.30
Peak level 97.7 %
Track quality 100.0 %
Test CRC 1F57CC39
Copy CRC 1F57CC39
Track not present in AccurateRip database
Copy OK
Track 5
Filename J:\Eac Rips\Julie London - 1957 - About The Blues\05 - Invitation To The Blues.wav
Pre-gap length 0:00:01.62
Peak level 97.7 %
Track quality 100.0 %
Test CRC BFD128D9
Copy CRC BFD128D9
Track not present in AccurateRip database
Copy OK
Track 6
Filename J:\Eac Rips\Julie London - 1957 - About The Blues\06 - Bye Bye Blues.wav
Pre-gap length 0:00:02.80
Peak level 94.8 %
Track quality 100.0 %
Test CRC D3F23ED4
Copy CRC D3F23ED4
Track not present in AccurateRip database
Copy OK
Track 7
Filename J:\Eac Rips\Julie London - 1957 - About The Blues\07 - Meaning Of The Blues.wav
Pre-gap length 0:00:02.30
Peak level 97.7 %
Track quality 100.0 %
Test CRC 4FB523FC
Copy CRC 4FB523FC
Track not present in AccurateRip database
Copy OK
Track 8
Filename J:\Eac Rips\Julie London - 1957 - About The Blues\08 - About the Blues.wav
Pre-gap length 0:00:01.90
Peak level 97.7 %
Track quality 99.9 %
Test CRC E2579848
Copy CRC E2579848
Track not present in AccurateRip database
Copy OK
Track 9
Filename J:\Eac Rips\Julie London - 1957 - About The Blues\09 - Sunday Blues.wav
Pre-gap length 0:00:03.30
Peak level 97.7 %
Track quality 100.0 %
Test CRC 0025C37B
Copy CRC 0025C37B
Track not present in AccurateRip database
Copy OK
Track 10
Filename J:\Eac Rips\Julie London - 1957 - About The Blues\10 - The Blues Is All I Ever Had.wav
Pre-gap length 0:00:02.62
Peak level 78.4 %
Track quality 100.0 %
Test CRC 3ED03174
Copy CRC 3ED03174
Track not present in AccurateRip database
Copy OK
Track 11
Filename J:\Eac Rips\Julie London - 1957 - About The Blues\11 - Blues In The Night.wav
Pre-gap length 0:00:03.29
Peak level 97.7 %
Track quality 99.9 %
Test CRC DEB1791B
Copy CRC DEB1791B
Track not present in AccurateRip database
Copy OK
Track 12
Filename J:\Eac Rips\Julie London - 1957 - About The Blues\12 - Bouquet Of Blues.wav
Pre-gap length 0:00:02.22
Peak level 97.7 %
Track quality 100.0 %
Test CRC 57B6BD83
Copy CRC 57B6BD83
Track not present in AccurateRip database
Copy OK
Track 13
Filename J:\Eac Rips\Julie London - 1957 - About The Blues\13 - Baby, Baby, All The Time.wav
Pre-gap length 0:00:03.16
Peak level 91.2 %
Track quality 100.0 %
Test CRC B595F561
Copy CRC B595F561
Track not present in AccurateRip database
Copy OK
Track 14
Filename J:\Eac Rips\Julie London - 1957 - About The Blues\14 - Shadow Woman.wav
Pre-gap length 0:00:01.82
Peak level 97.7 %
Track quality 99.9 %
Test CRC 9BFE83C9
Copy CRC 9BFE83C9
Track not present in AccurateRip database
Copy OK
Track 15
Filename J:\Eac Rips\Julie London - 1957 - About The Blues\15 - Meaning Of The Blues (45 Single Take).wav
Pre-gap length 0:00:02.00
Peak level 97.7 %
Track quality 99.9 %
Test CRC 8CF863B4
Copy CRC 8CF863B4
Track not present in AccurateRip database
Copy OK
Track 16
Filename J:\Eac Rips\Julie London - 1957 - About The Blues\16 - Dark.wav
Pre-gap length 0:00:02.40
Peak level 94.4 %
Track quality 100.0 %
Test CRC 508510BE
Copy CRC 508510BE
Track not present in AccurateRip database
Copy OK
None of the tracks are present in the AccurateRip database
No errors occurred
End of status report
Содержание индексной карты (.CUE)
REM GENRE Jazz
REM DATE 1957
REM DISCID E90AC110
REM COMMENT "ExactAudioCopy v0.99pb4"
PERFORMER "Julie London"
TITLE "About The Blues"
FILE "01. Basin Street Blues.flac" WAVE
TRACK 01 AUDIO
INDEX 01 00:00:00
TRACK 02 AUDIO
INDEX 00 03:03:42
FILE "02. I Gotta A Right To Sing The Blues.flac" WAVE
INDEX 01 00:00:00
TRACK 03 AUDIO
INDEX 00 02:56:17
FILE "03. A Nightingale Can Sing The Blues.flac" WAVE
INDEX 01 00:00:00
TRACK 04 AUDIO
INDEX 00 03:08:65
FILE "04. Get Set For The Blues.flac" WAVE
INDEX 01 00:00:00
TRACK 05 AUDIO
INDEX 00 02:43:10
FILE "05. Invitation To The Blues.flac" WAVE
INDEX 01 00:00:00
TRACK 06 AUDIO
INDEX 00 02:49:10
FILE "06. Bye Bye Blues.flac" WAVE
INDEX 01 00:00:00
TRACK 07 AUDIO
INDEX 00 01:38:60
FILE "07. Meaning Of The Blues.flac" WAVE
INDEX 01 00:00:00
TRACK 08 AUDIO
INDEX 00 02:56:72
FILE "08. About the Blues.flac" WAVE
INDEX 01 00:00:00
TRACK 09 AUDIO
INDEX 00 03:05:22
FILE "09. Sunday Blues.flac" WAVE
INDEX 01 00:00:00
TRACK 10 AUDIO
INDEX 00 02:54:10
FILE "10. The Blues Is All I Ever Had.flac" WAVE
INDEX 01 00:00:00
TRACK 11 AUDIO
INDEX 00 02:49:73
FILE "11. Blues In The Night.flac" WAVE
INDEX 01 00:00:00
TRACK 12 AUDIO
INDEX 00 03:39:43
FILE "12. Bouquet Of Blues.flac" WAVE
INDEX 01 00:00:00
TRACK 13 AUDIO
INDEX 00 02:55:23
FILE "13. Baby, Baby, All The Time.flac" WAVE
INDEX 01 00:00:00
TRACK 14 AUDIO
INDEX 00 02:23:13
FILE "14. Shadow Woman.flac" WAVE
INDEX 01 00:00:00
TRACK 15 AUDIO
INDEX 00 02:37:03
FILE "15. Meaning Of The Blues (45 single take).flac" WAVE
INDEX 01 00:00:00
TRACK 16 AUDIO
INDEX 00 02:56:42
FILE "16. Dark.flac" WAVE
INDEX 01 00:00:00
Julie (1957) / Love On The Rocks (1963)
Лог создания рипа
EAC extraction logfile from 29. July 2006, 21:50 for CD
Julie London / Julie / Love on the Rocks
Used drive : PLEXTOR DVDR PX-716A Adapter: 4 ID: 0
Read mode : Secure with NO C2, accurate stream, disable cache
Read offset correction : 30
Overread into Lead-In and Lead-Out : Yes
Used output format : Internal WAV Routines
44.100 Hz; 16 Bit; Stereo
Other options :
Fill up missing offset samples with silence : Yes
Delete leading and trailing silent blocks : No
Installed external ASPI interface
Range status and errors
Selected range
Filename C:\Julie; Love on the Rocks.wav
Peak level 99.8 %
Range quality 100.0 %
CRC 63A0183A
Copy OK
No errors occured
End of status report
Содержание индексной карты (.CUE)
REM GENRE Jazz
REM DATE 2006
CATALOG 0094635302622
PERFORMER "Julie London"
TITLE "Julie (1957) / Love On The Rocks (1963)"
FILE "Julie London - Julie & Love On The Rocks.flac" WAVE
TRACK 01 AUDIO
TITLE "Somebody Loves Me"
PERFORMER "Julie London"
ISRC USEM30100425
INDEX 01 00:00:00
TRACK 02 AUDIO
TITLE "Dream Of You"
PERFORMER "Julie London"
ISRC USCA25700255
INDEX 00 03:01:02
INDEX 01 03:01:59
TRACK 03 AUDIO
TITLE "Daddy"
PERFORMER "Julie London"
ISRC USEM39500133
INDEX 00 05:43:57
INDEX 01 05:44:16
TRACK 04 AUDIO
TITLE "Bye Bye Blackbird"
PERFORMER "Julie London"
ISRC USEM39600372
INDEX 00 08:00:53
INDEX 01 08:02:05
TRACK 05 AUDIO
TITLE "Free And Easy"
PERFORMER "Julie London"
ISRC USCA25700256
INDEX 00 10:35:15
INDEX 01 10:35:41
TRACK 06 AUDIO
TITLE "All My Life"
PERFORMER "Julie London"
ISRC USCA25700257
INDEX 00 12:53:42
INDEX 01 12:54:09
TRACK 07 AUDIO
TITLE "When The Red Red Robin Comes A Bob Bobobbin' Along"
PERFORMER "Julie London"
ISRC USCA25700258
INDEX 00 15:59:58
INDEX 01 16:00:44
TRACK 08 AUDIO
TITLE "Midnight Sun"
PERFORMER "Julie London"
ISRC USEM30100424
INDEX 00 17:43:20
INDEX 01 17:43:68
TRACK 09 AUDIO
TITLE "You're Getting To Be A Habit With Me"
PERFORMER "Julie London"
ISRC USCA25700259
INDEX 00 20:12:26
INDEX 01 20:13:14
TRACK 10 AUDIO
TITLE "Don'cha Go 'Way Mad"
PERFORMER "Julie London"
ISRC USCA25700260
INDEX 00 22:42:21
INDEX 01 22:43:04
TRACK 11 AUDIO
TITLE "(Back Home) In Indiana"
PERFORMER "Julie London"
ISRC USCA25700261
INDEX 00 25:20:40
INDEX 01 25:21:34
TRACK 12 AUDIO
TITLE "For You"
PERFORMER "Julie London"
ISRC USCA25700262
INDEX 00 28:14:56
INDEX 01 28:15:47
TRACK 13 AUDIO
TITLE "Love On The Rocks"
PERFORMER "Julie London"
ISRC USCA26200431
INDEX 00 30:56:33
INDEX 01 30:57:67
TRACK 14 AUDIO
TITLE "Guess Who I Saw Today"
PERFORMER "Julie London"
ISRC USCA26200432
INDEX 00 33:35:05
INDEX 01 33:36:69
TRACK 15 AUDIO
TITLE "Where Are You"
PERFORMER "Julie London"
ISRC USCA26200433
INDEX 00 36:43:27
INDEX 01 36:44:65
TRACK 16 AUDIO
TITLE "How Did He Look"
PERFORMER "Julie London"
ISRC USCA26200434
INDEX 00 39:18:30
INDEX 01 39:19:61
TRACK 17 AUDIO
TITLE "What's New"
PERFORMER "Julie London"
ISRC USCA26200435
INDEX 00 41:55:39
INDEX 01 41:56:53
TRACK 18 AUDIO
TITLE "A Cottage For Sale"
PERFORMER "Julie London"
ISRC USEM39500449
INDEX 00 44:31:71
INDEX 01 44:33:39
TRACK 19 AUDIO
TITLE "The End Of A Love Affair"
PERFORMER "Julie London"
ISRC USCA26200299
INDEX 00 47:05:23
INDEX 01 47:06:61
TRACK 20 AUDIO
TITLE "I'll Be Seeing You"
PERFORMER "Julie London"
ISRC USCA26200436
INDEX 00 49:23:30
INDEX 01 49:24:43
TRACK 21 AUDIO
TITLE "Where Did The Gentleman Go"
PERFORMER "Julie London"
ISRC USCA26200437
INDEX 00 51:31:74
INDEX 01 51:33:04
TRACK 22 AUDIO
TITLE "Don't Worry 'Bout Me"
PERFORMER "Julie London"
ISRC USCA26200438
INDEX 00 54:28:56
INDEX 01 54:29:40
TRACK 23 AUDIO
TITLE "The Man That Got Away"
PERFORMER "Julie London"
ISRC USEM30100414
INDEX 00 57:05:62
INDEX 01 57:07:00
TRACK 24 AUDIO
TITLE "Willow Weep For Me"
PERFORMER "Julie London"
ISRC USEM30100418
INDEX 00 60:42:50
INDEX 01 60:43:62
Swing Me An Old Song (1959)
Лог создания рипа
EAC extraction logfile from 4. August 2006, 18:32 for CD
Julie London / Swing Me an Old Song
Used drive : HL-DT-STDVD-ROM GDR8162B Adapter: 1 ID: 1
Read mode : Secure with NO C2, accurate stream, disable cache
Read offset correction : 102
Overread into Lead-In and Lead-Out : No
Used output format : Internal WAV Routines
44.100 Hz; 16 Bit; Stereo
Other options :
Fill up missing offset samples with silence : Yes
Delete leading and trailing silent blocks : No
Installed external ASPI interface
Range status and errors
Selected range
Filename C:\Eac\Nuova cartella\CDImage.wav
Peak level 90.9 %
Range quality 100.0 %
CRC 0AD108EB
Copy OK
No errors occured
End of status report
Содержание индексной карты (.CUE)
REM DATE 1959
REM GENRE Jazz
REM DISCID 9707870C
REM COMMENT "ExactAudioCopy v0.95b2"
PERFORMER "Julie London"
TITLE "Swing Me An Old Song"
FILE "Julie London - Swing Me An Old Song.flac" WAVE
TRACK 01 AUDIO
TITLE "Comin' Thru The Rye"
PERFORMER "Julie London"
INDEX 01 00:00:00
TRACK 02 AUDIO
TITLE "Cuddle Up A Little Closer"
PERFORMER "Julie London"
INDEX 00 02:36:07
INDEX 01 02:36:65
TRACK 03 AUDIO
TITLE "After The Ball"
PERFORMER "Julie London"
INDEX 00 04:46:52
INDEX 01 04:48:60
TRACK 04 AUDIO
TITLE "Be My Little Baby Bumble Bee"
PERFORMER "Julie London"
INDEX 00 07:32:47
INDEX 01 07:34:62
TRACK 05 AUDIO
TITLE "Camptown Races"
PERFORMER "Julie London"
INDEX 00 10:59:30
INDEX 01 11:01:40
TRACK 06 AUDIO
TITLE "Old Folks At Home"
PERFORMER "Julie London"
INDEX 00 14:23:22
INDEX 01 14:25:50
TRACK 07 AUDIO
TITLE "Downtown Strutters' Ball"
PERFORMER "Julie London"
INDEX 00 17:09:02
INDEX 01 17:11:35
TRACK 08 AUDIO
TITLE "How Come You Do Me Like You Do"
PERFORMER "Julie London"
INDEX 00 19:42:62
INDEX 01 19:45:42
TRACK 09 AUDIO
TITLE "Row, Row, Row"
PERFORMER "Julie London"
INDEX 00 22:16:42
INDEX 01 22:18:57
TRACK 10 AUDIO
TITLE "By The Beautiful Sea"
PERFORMER "Julie London"
INDEX 00 24:41:62
INDEX 01 24:42:57
TRACK 11 AUDIO
TITLE "Bill Bailey, Won't You Please Come Home?"
PERFORMER "Julie London"
INDEX 00 26:57:30
INDEX 01 26:59:10
TRACK 12 AUDIO
TITLE "Three O'Clock In The Morning"
PERFORMER "Julie London"
INDEX 00 28:50:55
INDEX 01 28:51:35
Julie At Home (1960) / Around Midnight (1960)
Лог создания рипа
EAC extraction logfile from 14. May 2009, 8:05 for CD
Julie London / Julie... At Home / Around Midnight
Used drive : HL-DT-STDVDRAM GSA-4167B Adapter: 0 ID: 0
Read mode : Secure with NO C2, accurate stream, disable cache
Read offset correction : 667
Overread into Lead-In and Lead-Out : No
Used output format : C:\Program Files\FLAC\flac.exe (User Defined Encoder)
256 kBit/s
Additional command line options : -8 -A tukey(0.25) -A gauss(0.1875) -b 4096 -V -T "artist=%a" -T "title=%t" -T "album=%g" -T "date=%y" -T "tracknumber=%n" -T "genre=%m" %s --sector-align
Other options :
Fill up missing offset samples with silence : Yes
Delete leading and trailing silent blocks : No
Native Win32 interface for Win NT & 2000
Track 1
Filename G:\flacs\Julie London - Julie at Home & Around Midnight\01 - You'd Be So Nice To Come Home To.wav
Pre-gap length 0:00:02.00
Peak level 98.0 %
Track quality 100.0 %
Test CRC 24431A74
Copy CRC 24431A74
Copy OK
Track 2
Filename G:\flacs\Julie London - Julie at Home & Around Midnight\02 - Lonesome Road.wav
Pre-gap length 0:00:01.17
Peak level 98.0 %
Track quality 100.0 %
Test CRC E55F1FD6
Copy CRC E55F1FD6
Copy OK
Track 3
Filename G:\flacs\Julie London - Julie at Home & Around Midnight\03 - They Didn't Believe Me.wav
Pre-gap length 0:00:01.27
Peak level 97.7 %
Track quality 99.9 %
Test CRC C0C7E28F
Copy CRC C0C7E28F
Copy OK
Track 4
Filename G:\flacs\Julie London - Julie at Home & Around Midnight\04 - By Myself.wav
Pre-gap length 0:00:01.02
Peak level 98.0 %
Track quality 100.0 %
Test CRC 5C048D1F
Copy CRC 5C048D1F
Copy OK
Track 5
Filename G:\flacs\Julie London - Julie at Home & Around Midnight\05 - The Thrill Is Gone.wav
Pre-gap length 0:00:01.33
Peak level 98.0 %
Track quality 99.9 %
Test CRC 2E321B32
Copy CRC 2E321B32
Copy OK
Track 6
Filename G:\flacs\Julie London - Julie at Home & Around Midnight\06 - You've Changed.wav
Pre-gap length 0:00:01.25
Peak level 83.4 %
Track quality 99.9 %
Test CRC 325A48D2
Copy CRC 325A48D2
Copy OK
Track 7
Filename G:\flacs\Julie London - Julie at Home & Around Midnight\07 - Goodbye.wav
Pre-gap length 0:00:01.57
Peak level 82.5 %
Track quality 100.0 %
Test CRC 24C02848
Copy CRC 24C02848
Copy OK
Track 8
Filename G:\flacs\Julie London - Julie at Home & Around Midnight\08 - Sentimental Journey.wav
Pre-gap length 0:00:01.06
Peak level 98.0 %
Track quality 100.0 %
Test CRC C31EE05F
Copy CRC C31EE05F
Copy OK
Track 9
Filename G:\flacs\Julie London - Julie at Home & Around Midnight\09 - Give Me The Simple Life.wav
Pre-gap length 0:00:01.05
Peak level 98.0 %
Track quality 99.9 %
Test CRC 1FCC2446
Copy CRC 1FCC2446
Copy OK
Track 10
Filename G:\flacs\Julie London - Julie at Home & Around Midnight\10 - You Stepped Out Of A Dream.wav
Pre-gap length 0:00:01.35
Peak level 98.0 %
Track quality 100.0 %
Test CRC B193F172
Copy CRC B193F172
Copy OK
Track 11
Filename G:\flacs\Julie London - Julie at Home & Around Midnight\11 - Let There Be Love.wav
Pre-gap length 0:00:01.45
Peak level 98.0 %
Track quality 100.0 %
Test CRC E6EEA581
Copy CRC E6EEA581
Copy OK
Track 12
Filename G:\flacs\Julie London - Julie at Home & Around Midnight\12 - Everything Happens To Me.wav
Pre-gap length 0:00:01.00
Peak level 86.9 %
Track quality 99.9 %
Test CRC 5F918E63
Copy CRC 5F918E63
Copy OK
Track 13
Filename G:\flacs\Julie London - Julie at Home & Around Midnight\13 - Around Midnight.wav
Pre-gap length 0:00:01.25
Peak level 91.1 %
Track quality 99.9 %
Test CRC ED817F52
Copy CRC ED817F52
Copy OK
Track 14
Filename G:\flacs\Julie London - Julie at Home & Around Midnight\14 - Lonely In Paris.wav
Pre-gap length 0:00:01.27
Peak level 96.5 %
Track quality 99.9 %
Test CRC 2D4EBA22
Copy CRC 2D4EBA22
Copy OK
Track 15
Filename G:\flacs\Julie London - Julie at Home & Around Midnight\15 - Misty.wav
Pre-gap length 0:00:01.27
Peak level 97.9 %
Track quality 99.9 %
Test CRC A8F6EDD4
Copy CRC A8F6EDD4
Copy OK
Track 16
Filename G:\flacs\Julie London - Julie at Home & Around Midnight\16 - Black Coffee.wav
Pre-gap length 0:00:01.46
Peak level 93.4 %
Track quality 100.0 %
Test CRC 5F26CC0B
Copy CRC 5F26CC0B
Copy OK
Track 17
Filename G:\flacs\Julie London - Julie at Home & Around Midnight\17 - Luch Life.wav
Pre-gap length 0:00:00.23
Peak level 74.7 %
Track quality 99.8 %
Test CRC B0807EDB
Copy CRC B0807EDB
Copy OK
Track 18
Filename G:\flacs\Julie London - Julie at Home & Around Midnight\18 - In The Wee Small Hours Of The Morning.wav
Pre-gap length 0:00:00.55
Peak level 83.2 %
Track quality 100.0 %
Test CRC B879AAE7
Copy CRC B879AAE7
Copy OK
Track 19
Filename G:\flacs\Julie London - Julie at Home & Around Midnight\19 - Don't Smoke In Bed.wav
Pre-gap length 0:00:01.47
Peak level 80.5 %
Track quality 100.0 %
Test CRC D5F968E2
Copy CRC D5F968E2
Copy OK
Track 20
Filename G:\flacs\Julie London - Julie at Home & Around Midnight\20 - You And The Night And The Music.wav
Pre-gap length 0:00:01.22
Peak level 97.7 %
Track quality 100.0 %
Test CRC F3A90E80
Copy CRC F3A90E80
Copy OK
Track 21
Filename G:\flacs\Julie London - Julie at Home & Around Midnight\21 - Something Cool.wav
Pre-gap length 0:00:01.49
Peak level 97.9 %
Track quality 100.0 %
Test CRC 6A7B9497
Copy CRC 6A7B9497
Copy OK
Track 22
Filename G:\flacs\Julie London - Julie at Home & Around Midnight\22 - How About Me.wav
Pre-gap length 0:00:01.70
Peak level 71.8 %
Track quality 100.0 %
Test CRC 69B73DB2
Copy CRC 69B73DB2
Copy OK
Track 23
Filename G:\flacs\Julie London - Julie at Home & Around Midnight\23 - But Not For Me.wav
Pre-gap length 0:00:01.32
Peak level 97.9 %
Track quality 100.0 %
Test CRC 05FA26D4
Copy CRC 05FA26D4
Copy OK
Track 24
Filename G:\flacs\Julie London - Julie at Home & Around Midnight\24 - The Party's Over.wav
Pre-gap length 0:00:01.08
Peak level 77.4 %
Track quality 99.9 %
Test CRC 8B92510E
Copy CRC 8B92510E
Copy OK
No errors occured
End of status report
Содержание индексной карты (.CUE)
REM DISCID 490EF618
REM COMMENT "ExactAudioCopy v0.95b4"
PERFORMER "Julie London"
TITLE "Julie... At Home (1960) / Around Midnight (1960)"
FILE "01. You'd Be So Nice To Come Home To.flac" WAVE
TRACK 01 AUDIO
TITLE "You'd Be So Nice To Come Home To"
PERFORMER "Julie London"
INDEX 01 00:00:00
TRACK 02 AUDIO
TITLE "Lonesome Road"
PERFORMER "Julie London"
INDEX 00 02:13:60
FILE "02. Lonesome Road.flac" WAVE
INDEX 01 00:00:00
TRACK 03 AUDIO
TITLE "They Didn't Believe Me"
PERFORMER "Julie London"
INDEX 00 02:22:48
FILE "03. They Didn't Believe Me.flac" WAVE
INDEX 01 00:00:00
TRACK 04 AUDIO
TITLE "By Myself"
PERFORMER "Julie London"
INDEX 00 02:18:08
FILE "04. By Myself.flac" WAVE
INDEX 01 00:00:00
TRACK 05 AUDIO
TITLE "The Thrill Is Gone"
PERFORMER "Julie London"
INDEX 00 01:40:20
FILE "05. The Thrill Is Gone.flac" WAVE
INDEX 01 00:00:00
TRACK 06 AUDIO
TITLE "You've Changed"
PERFORMER "Julie London"
INDEX 00 03:19:40
FILE "06. You've Changed.flac" WAVE
INDEX 01 00:00:00
TRACK 07 AUDIO
TITLE "Goodbye"
PERFORMER "Julie London"
INDEX 00 02:42:70
FILE "07. Goodbye.flac" WAVE
INDEX 01 00:00:00
TRACK 08 AUDIO
TITLE "Sentimental Journey"
PERFORMER "Julie London"
INDEX 00 02:22:14
FILE "08. Sentimental Journey.flac" WAVE
INDEX 01 00:00:00
TRACK 09 AUDIO
TITLE "Give Me The Simple Life"
PERFORMER "Julie London"
INDEX 00 02:24:70
FILE "09. Give Me The Simple Life.flac" WAVE
INDEX 01 00:00:00
TRACK 10 AUDIO
TITLE "You Stepped Out Of A Dream"
PERFORMER "Julie London"
INDEX 00 02:01:55
FILE "10. You Stepped Out Of A Dream.flac" WAVE
INDEX 01 00:00:00
TRACK 11 AUDIO
TITLE "Let There Be Love"
PERFORMER "Julie London"
INDEX 00 02:11:30
FILE "11. Let There Be Love.flac" WAVE
INDEX 01 00:00:00
TRACK 12 AUDIO
TITLE "Everything Happens To Me"
PERFORMER "Julie London"
INDEX 00 02:02:08
FILE "12. Everything Happens To Me.flac" WAVE
INDEX 01 00:00:00
TRACK 13 AUDIO
TITLE "Around Midnight"
PERFORMER "Julie London"
INDEX 00 03:38:12
FILE "13. Around Midnight.flac" WAVE
INDEX 01 00:00:00
TRACK 14 AUDIO
TITLE "Lonely In Paris"
PERFORMER "Julie London"
INDEX 00 02:52:21
FILE "14. Lonely In Paris.flac" WAVE
INDEX 01 00:00:00
TRACK 15 AUDIO
TITLE "Misty"
PERFORMER "Julie London"
INDEX 00 02:09:35
FILE "15. Misty.flac" WAVE
INDEX 01 00:00:00
TRACK 16 AUDIO
TITLE "Black Coffee"
PERFORMER "Julie London"
INDEX 00 03:09:49
FILE "16. Black Coffee.flac" WAVE
INDEX 01 00:00:00
TRACK 17 AUDIO
TITLE "Luch Life"
PERFORMER "Julie London"
INDEX 00 02:57:65
FILE "17. Luch Life.flac" WAVE
INDEX 01 00:00:00
TRACK 18 AUDIO
TITLE "In The Wee Small Hours Of The Morning"
PERFORMER "Julie London"
INDEX 00 01:40:40
FILE "18. In The Wee Small Hours Of The Morning.flac" WAVE
INDEX 01 00:00:00
TRACK 19 AUDIO
TITLE "Don't Smoke In Bed"
PERFORMER "Julie London"
INDEX 00 02:47:55
FILE "19. Don't Smoke In Bed.flac" WAVE
INDEX 01 00:00:00
TRACK 20 AUDIO
TITLE "You And The Night And The Music"
PERFORMER "Julie London"
INDEX 00 02:24:03
FILE "20. You And The Night And The Music.flac" WAVE
INDEX 01 00:00:00
TRACK 21 AUDIO
TITLE "Something Cool"
PERFORMER "Julie London"
INDEX 00 02:38:46
FILE "21. Something Cool.flac" WAVE
INDEX 01 00:00:00
TRACK 22 AUDIO
TITLE "How About Me"
PERFORMER "Julie London"
INDEX 00 04:36:18
FILE "22. How About Me.flac" WAVE
INDEX 01 00:00:00
TRACK 23 AUDIO
TITLE "But Not For Me"
PERFORMER "Julie London"
INDEX 00 03:05:73
FILE "23. But Not For Me.flac" WAVE
INDEX 01 00:00:00
TRACK 24 AUDIO
TITLE "The Party's Over"
PERFORMER "Julie London"
INDEX 00 02:23:27
FILE "24. The Party's Over.flac" WAVE
INDEX 01 00:00:00
Latin In A Satin Mood (1962)
Лог создания рипа
EAC extraction logfile from 1. August 2006, 19:15 for CD
Julie London / Latin In A Satin Mood
Used drive : HL-DT-STDVD-ROM GDR8162B Adapter: 1 ID: 1
Read mode : Secure with NO C2, accurate stream, disable cache
Read offset correction : 102
Overread into Lead-In and Lead-Out : No
Used output format : Internal WAV Routines
44.100 Hz; 16 Bit; Stereo
Other options :
Fill up missing offset samples with silence : Yes
Delete leading and trailing silent blocks : No
Installed external ASPI interface
Range status and errors
Selected range
Filename C:\Eac\Nuova cartella\CDImage.wav
Peak level 93.2 %
Range quality 100.0 %
CRC C254C4BB
Copy OK
No errors occured
End of status report
Содержание индексной карты (.CUE)
REM GENRE Vocal
REM DATE 1962
REM DISCID 96072E0C
REM COMMENT "ExactAudioCopy v0.95b2"
PERFORMER "Julie London"
TITLE "Latin In A Satin Mood"
FILE "Julie London - Latin In A Satin Mood.flac" WAVE
TRACK 01 AUDIO
TITLE "Frenesi"
PERFORMER "Julie London"
INDEX 01 00:00:00
TRACK 02 AUDIO
TITLE "Be Mine Tonight (Noche De Ronda)"
PERFORMER "Julie London"
INDEX 00 02:27:12
INDEX 01 02:29:50
TRACK 03 AUDIO
TITLE "Yours (Quierme Mucho)"
PERFORMER "Julie London"
INDEX 00 05:05:02
INDEX 01 05:07:40
TRACK 04 AUDIO
TITLE "Besame Mucho"
PERFORMER "Julie London"
INDEX 00 07:48:60
INDEX 01 07:51:22
TRACK 05 AUDIO
TITLE "Adios"
PERFORMER "Julie London"
INDEX 00 10:00:72
INDEX 01 10:03:35
TRACK 06 AUDIO
TITLE "Sway (Quien Sera)"
PERFORMER "Julie London"
INDEX 00 12:37:35
INDEX 01 12:39:72
TRACK 07 AUDIO
TITLE "Perfidia"
PERFORMER "Julie London"
INDEX 00 15:16:10
INDEX 01 15:18:47
TRACK 08 AUDIO
TITLE "Come Closer To Me (Acercate Mas)"
PERFORMER "Julie London"
INDEX 00 17:49:47
INDEX 01 17:52:10
TRACK 09 AUDIO
TITLE "Amor"
PERFORMER "Julie London"
INDEX 00 19:48:42
INDEX 01 19:51:05
TRACK 10 AUDIO
TITLE "Magic Is The Moonlight (Te Quiero Dijiste)"
PERFORMER "Julie London"
INDEX 00 22:35:07
INDEX 01 22:37:45
TRACK 11 AUDIO
TITLE "You Belong To My Heart (Solamente Una Vez)"
PERFORMER "Julie London"
INDEX 00 25:01:65
INDEX 01 25:04:27
TRACK 12 AUDIO
TITLE "Vaya Con Dios"
PERFORMER "Julie London"
INDEX 00 27:55:27
INDEX 01 27:57:65
Love Letters (1962) / Feeling Good (1965)
Лог создания рипа
EAC extraction logfile from 30. December 2006, 18:04 for CD
Julie London / Love Letters & Feeling Good
Used drive : HL-DT-STDVDRAM GSA-4160B Adapter: 1 ID: 1
Read mode : Secure with NO C2, accurate stream, disable cache
Read offset correction : 667
Overread into Lead-In and Lead-Out : No
Used output format : Internal WAV Routines
44.100 Hz; 16 Bit; Stereo
Use compression offset : 0
Other options :
Fill up missing offset samples with silence : Yes
Delete leading and trailing silent blocks : No
Installed external ASPI interface
Range status and errors
Selected range
Filename C:\Converted Music\Julie London - Love Letters & Feeling Good\Julie London - Love Letters & Feeling Good.wav
Peak level 97.7 %
Range quality 100.0 %
CRC C86E185A
Copy OK
No errors occured
End of status report
Содержание индексной карты (.CUE)
REM GENRE Vocal
REM DATE 2005
REM DISCID 2E0E1016
REM COMMENT "ExactAudioCopy v0.95b4"
PERFORMER "Julie London"
TITLE "Love Letters (1962) / Feeling Good (1965)"
FILE "Julie London - Love Letters & Feeling Good.flac" WAVE
TRACK 01 AUDIO
TITLE "I Love You Porgy"
PERFORMER "Julie London"
INDEX 01 00:00:00
TRACK 02 AUDIO
TITLE "And That Reminds Me"
PERFORMER "Julie London"
INDEX 00 02:49:14
INDEX 01 02:53:69
TRACK 03 AUDIO
TITLE "Love Letters"
PERFORMER "Julie London"
INDEX 00 05:51:35
INDEX 01 05:55:58
TRACK 04 AUDIO
TITLE "Broken-Hearted Melody"
PERFORMER "Julie London"
INDEX 00 08:33:17
INDEX 01 08:37:68
TRACK 05 AUDIO
TITLE "The Second Time Around"
PERFORMER "Julie London"
INDEX 00 10:40:40
INDEX 01 10:44:43
TRACK 06 AUDIO
TITLE "Fascination"
PERFORMER "Julie London"
INDEX 00 13:04:55
INDEX 01 13:08:25
TRACK 07 AUDIO
TITLE "What A Difference A Day Made"
PERFORMER "Julie London"
INDEX 00 15:42:42
INDEX 01 15:46:31
TRACK 08 AUDIO
TITLE "Never On Sunday"
PERFORMER "Julie London"
INDEX 00 18:16:73
INDEX 01 18:21:20
TRACK 09 AUDIO
TITLE "Hey There"
PERFORMER "Julie London"
INDEX 00 20:56:08
INDEX 01 20:59:65
TRACK 10 AUDIO
TITLE "All The Way"
PERFORMER "Julie London"
INDEX 00 23:05:70
INDEX 01 23:09:39
TRACK 11 AUDIO
TITLE "I Miss You So"
PERFORMER "Julie London"
INDEX 00 25:26:24
INDEX 01 25:29:59
TRACK 12 AUDIO
TITLE "Com On-A My House"
PERFORMER "Julie London"
INDEX 00 27:25:14
INDEX 01 27:29:23
TRACK 13 AUDIO
TITLE "My Kind Of Town"
PERFORMER "Julie London"
INDEX 00 29:45:67
INDEX 01 29:49:40
TRACK 14 AUDIO
TITLE "Girl Talk"
PERFORMER "Julie London"
INDEX 00 32:48:27
INDEX 01 32:51:54
TRACK 15 AUDIO
TITLE "King Of The Road"
PERFORMER "Julie London"
INDEX 00 35:30:27
INDEX 01 35:33:41
TRACK 16 AUDIO
TITLE "I Bruise Easily"
PERFORMER "Julie London"
INDEX 00 37:58:64
INDEX 01 38:01:74
TRACK 17 AUDIO
TITLE "Feeling Good"
PERFORMER "Julie London"
INDEX 00 41:46:28
INDEX 01 41:49:31
TRACK 18 AUDIO
TITLE "Watermelon Man"
PERFORMER "Julie London"
INDEX 00 44:44:23
INDEX 01 44:47:58
TRACK 19 AUDIO
TITLE "She's Just A Quiet Girl (Mae)"
PERFORMER "Julie London"
INDEX 00 47:22:15
INDEX 01 47:25:54
TRACK 20 AUDIO
TITLE "Summertime"
PERFORMER "Julie London"
INDEX 00 50:05:02
INDEX 01 50:07:50
TRACK 21 AUDIO
TITLE "Hello Dolly"
PERFORMER "Julie London"
INDEX 00 53:15:14
INDEX 01 53:18:56
TRACK 22 AUDIO
TITLE "Won't Someone Please Belong To Me"
PERFORMER "Julie London"
INDEX 00 56:15:37
INDEX 01 56:19:04
[Профиль]  [ЛС] 

papa1954

Top Seed 09* 10240r

Стаж: 12 лет 4 месяца

Сообщений: 16944

papa1954 · 01-Ноя-12 15:39 (спустя 17 мин., ред. 06-Ноя-12 20:07)

Sophisticated Lady (1962) / For The Night People (1966)
Лог создания рипа
Exact Audio Copy V0.99 prebeta 5 from 4. May 2009
EAC extraction logfile from 17. May 2009, 8:52
Julie London / Sophisticated Lady & For The Night People
Used drive : ATAPI DVD A DH16A1L Adapter: 0 ID: 2
Read mode : Secure
Utilize accurate stream : Yes
Defeat audio cache : Yes
Make use of C2 pointers : No
Read offset correction : 6
Overread into Lead-In and Lead-Out : No
Fill up missing offset samples with silence : Yes
Delete leading and trailing silent blocks : No
Null samples used in CRC calculations : Yes
Used interface : Native Win32 interface for Win NT & 2000
Gap handling : Appended to previous track
Used output format : User Defined Encoder
Selected bitrate : 96 kBit/s
Quality : High
Add ID3 tag : No
Command line compressor : C:\Program Files\FLAC\flac.exe
Additional command line options : -V -8 -T "artist=%a" -T "title=%t" -T "album=%g" -T "date=%y" -T "tracknumber=%n" -T "genre=%m" %s
TOC of the extracted CD
Track | Start | Length | Start sector | End sector
---------------------------------------------------------
1 | 0:00.00 | 2:37.15 | 0 | 11789
2 | 2:37.15 | 2:35.70 | 11790 | 23484
3 | 5:13.10 | 2:32.45 | 23485 | 34929
4 | 7:45.55 | 3:13.08 | 34930 | 49412
5 | 10:58.63 | 2:55.62 | 49413 | 62599
6 | 13:54.50 | 3:50.00 | 62600 | 79849
7 | 17:44.50 | 3:14.28 | 79850 | 94427
8 | 20:59.03 | 2:43.30 | 94428 | 106682
9 | 23:42.33 | 4:43.17 | 106683 | 127924
10 | 28:25.50 | 2:50.15 | 127925 | 140689
11 | 31:15.65 | 2:55.70 | 140690 | 153884
12 | 34:11.60 | 2:23.40 | 153885 | 164649
13 | 36:35.25 | 2:26.30 | 164650 | 175629
14 | 39:01.55 | 3:59.15 | 175630 | 193569
15 | 43:00.70 | 2:30.00 | 193570 | 204819
16 | 45:30.70 | 3:17.38 | 204820 | 219632
17 | 48:48.33 | 3:31.67 | 219633 | 235524
18 | 52:20.25 | 2:28.10 | 235525 | 246634
19 | 54:48.35 | 3:15.43 | 246635 | 261302
20 | 58:04.03 | 3:14.12 | 261303 | 275864
21 | 61:18.15 | 3:24.50 | 275865 | 291214
22 | 64:42.65 | 2:52.15 | 291215 | 304129
23 | 67:35.05 | 2:46.65 | 304130 | 316644
Track 1
Filename E:\Desktop\Julie London - Sophisticated Lady & For The Night People\01 - Sophisticated Lady.wav
Pre-gap length 0:00:02.00
Peak level 92.9 %
Track quality 100.0 %
Test CRC B974B593
Copy CRC B974B593
Track not present in AccurateRip database
Copy OK
Track 2
Filename E:\Desktop\Julie London - Sophisticated Lady & For The Night People\02 - Blame It On My Youth.wav
Pre-gap length 0:00:03.10
Peak level 87.6 %
Track quality 100.0 %
Test CRC 416B7668
Copy CRC 416B7668
Track not present in AccurateRip database
Copy OK
Track 3
Filename E:\Desktop\Julie London - Sophisticated Lady & For The Night People\03 - Make It Another Old-Fashioned Please.wav
Pre-gap length 0:00:02.45
Peak level 76.2 %
Track quality 100.0 %
Test CRC 877D6C56
Copy CRC 877D6C56
Track not present in AccurateRip database
Copy OK
Track 4
Filename E:\Desktop\Julie London - Sophisticated Lady & For The Night People\04 - You're Blase.wav
Pre-gap length 0:00:03.22
Peak level 80.4 %
Track quality 100.0 %
Test CRC C69B0B31
Copy CRC C69B0B31
Track not present in AccurateRip database
Copy OK
Track 5
Filename E:\Desktop\Julie London - Sophisticated Lady & For The Night People\05 - Bewitched.wav
Pre-gap length 0:00:03.65
Peak level 82.1 %
Track quality 100.0 %
Test CRC B78DB500
Copy CRC B78DB500
Track not present in AccurateRip database
Copy OK
Track 6
Filename E:\Desktop\Julie London - Sophisticated Lady & For The Night People\06 - Spring Can Really Hang You Up The Most.wav
Pre-gap length 0:00:03.60
Peak level 93.5 %
Track quality 100.0 %
Test CRC F90A3761
Copy CRC F90A3761
Track not present in AccurateRip database
Copy OK
Track 7
Filename E:\Desktop\Julie London - Sophisticated Lady & For The Night People\07 - Remind Me.wav
Pre-gap length 0:00:02.62
Peak level 90.7 %
Track quality 100.0 %
Test CRC C1700485
Copy CRC C1700485
Track not present in AccurateRip database
Copy OK
Track 8
Filename E:\Desktop\Julie London - Sophisticated Lady & For The Night People\08 - When She Makes Music.wav
Pre-gap length 0:00:04.10
Peak level 93.6 %
Track quality 100.0 %
Test CRC 6933F22B
Copy CRC 6933F22B
Track not present in AccurateRip database
Copy OK
Track 9
Filename E:\Desktop\Julie London - Sophisticated Lady & For The Night People\09 - When The World Was Young.wav
Pre-gap length 0:00:03.40
Peak level 64.4 %
Track quality 99.9 %
Test CRC D6EE4DDA
Copy CRC D6EE4DDA
Track not present in AccurateRip database
Copy OK
Track 10
Filename E:\Desktop\Julie London - Sophisticated Lady & For The Night People\10 - If I Should Lose You.wav
Pre-gap length 0:00:04.00
Peak level 94.5 %
Track quality 100.0 %
Test CRC FA73CB84
Copy CRC FA73CB84
Track not present in AccurateRip database
Copy OK
Track 11
Filename E:\Desktop\Julie London - Sophisticated Lady & For The Night People\11 - Where Am I To Go.wav
Pre-gap length 0:00:03.07
Peak level 91.1 %
Track quality 100.0 %
Test CRC DFD0FE5E
Copy CRC DFD0FE5E
Track not present in AccurateRip database
Copy OK
Track 12
Filename E:\Desktop\Julie London - Sophisticated Lady & For The Night People\12 - Absent Minded Me.wav
Pre-gap length 0:00:03.12
Peak level 93.6 %
Track quality 100.0 %
Test CRC 284F1990
Copy CRC 284F1990
Track not present in AccurateRip database
Copy OK
Track 13
Filename E:\Desktop\Julie London - Sophisticated Lady & For The Night People\13 - Won't You Come Home Bill Bailey.wav
Pre-gap length 0:00:03.57
Peak level 66.7 %
Track quality 100.0 %
Test CRC DC5A6CAE
Copy CRC DC5A6CAE
Track not present in AccurateRip database
Copy OK
Track 14
Filename E:\Desktop\Julie London - Sophisticated Lady & For The Night People\14 - I Got It Bad (And That Ain't Good).wav
Pre-gap length 0:00:03.32
Peak level 62.2 %
Track quality 100.0 %
Test CRC A700FD7B
Copy CRC A700FD7B
Track not present in AccurateRip database
Copy OK
Track 15
Filename E:\Desktop\Julie London - Sophisticated Lady & For The Night People\15 - Saturday Night.wav
Pre-gap length 0:00:02.60
Peak level 82.8 %
Track quality 100.0 %
Test CRC 26417EFD
Copy CRC 26417EFD
Track not present in AccurateRip database
Copy OK
Track 16
Filename E:\Desktop\Julie London - Sophisticated Lady & For The Night People\16 - God Bless The Child.wav
Pre-gap length 0:00:02.60
Peak level 72.4 %
Track quality 100.0 %
Test CRC 20E77772
Copy CRC 20E77772
Track not present in AccurateRip database
Copy OK
Track 17
Filename E:\Desktop\Julie London - Sophisticated Lady & For The Night People\17 - Am I Blue .wav
Pre-gap length 0:00:02.38
Peak level 79.8 %
Track quality 100.0 %
Test CRC E7609241
Copy CRC E7609241
Track not present in AccurateRip database
Copy OK
Track 18
Filename E:\Desktop\Julie London - Sophisticated Lady & For The Night People\18 - Dream.wav
Pre-gap length 0:00:02.52
Peak level 76.1 %
Track quality 100.0 %
Test CRC BA4CC835
Copy CRC BA4CC835
Track not present in AccurateRip database
Copy OK
Track 19
Filename E:\Desktop\Julie London - Sophisticated Lady & For The Night People\19 - Here's That Rainy Day.wav
Pre-gap length 0:00:03.10
Peak level 67.1 %
Track quality 99.9 %
Test CRC 686626F0
Copy CRC 686626F0
Track not present in AccurateRip database
Copy OK
Track 20
Filename E:\Desktop\Julie London - Sophisticated Lady & For The Night People\20 - When The Sun Comes Out.wav
Pre-gap length 0:00:02.00
Peak level 89.9 %
Track quality 100.0 %
Test CRC 75F9AFB7
Copy CRC 75F9AFB7
Accurately ripped (confidence 2) [65A36E09]
Copy OK
Track 21
Filename E:\Desktop\Julie London - Sophisticated Lady & For The Night People\21 - Can't Get Out Of This Mood.wav
Pre-gap length 0:00:02.07
Peak level 76.1 %
Track quality 100.0 %
Test CRC E34895B3
Copy CRC E34895B3
Accurately ripped (confidence 2) [BE420125]
Copy OK
Track 22
Filename E:\Desktop\Julie London - Sophisticated Lady & For The Night People\22 - I Hadn't Anyone Till You.wav
Pre-gap length 0:00:02.30
Peak level 84.0 %
Track quality 100.0 %
Test CRC 426996B9
Copy CRC 426996B9
Accurately ripped (confidence 2) [AFE08F1D]
Copy OK
Track 23
Filename E:\Desktop\Julie London - Sophisticated Lady & For The Night People\23 - I'll Never Smile Again.wav
Pre-gap length 0:00:02.55
Peak level 92.7 %
Track quality 100.0 %
Test CRC F733AB99
Copy CRC F733AB99
Accurately ripped (confidence 2) [7BAB68CD]
Copy OK
4 track(s) accurately ripped
19 track(s) not present in the AccurateRip database
Some tracks could not be verified as accurate
No errors occurred
End of status report
Содержание индексной карты (.CUE)
REM GENRE Jazz
REM DATE 1998
REM DISCID 4C107D17
REM COMMENT "ExactAudioCopy v0.99pb5"
PERFORMER "Julie London"
TITLE "Sophisticated Lady (1962) / For The Night People (1966)"
FILE "01. Sophisticated Lady.flac" WAVE
TRACK 01 AUDIO
TITLE "Sophisticated Lady"
PERFORMER "Julie London"
INDEX 01 00:00:00
TRACK 02 AUDIO
TITLE "Blame It On My Youth"
PERFORMER "Julie London"
INDEX 00 02:34:05
FILE "02. Blame It On My Youth.flac" WAVE
INDEX 01 00:00:00
TRACK 03 AUDIO
TITLE "Make It Another Old-Fashioned Please"
PERFORMER "Julie London"
INDEX 00 02:33:25
FILE "03. Make It Another Old-Fashioned Please.flac" WAVE
INDEX 01 00:00:00
TRACK 04 AUDIO
TITLE "You're Blase"
PERFORMER "Julie London"
INDEX 00 02:29:23
FILE "04. You're Blase.flac" WAVE
INDEX 01 00:00:00
TRACK 05 AUDIO
TITLE "Bewitched"
PERFORMER "Julie London"
INDEX 00 03:09:18
FILE "05. Bewitched.flac" WAVE
INDEX 01 00:00:00
TRACK 06 AUDIO
TITLE "Spring Can Really Hang You Up The Most"
PERFORMER "Julie London"
INDEX 00 02:52:02
FILE "06. Spring Can Really Hang You Up The Most.flac" WAVE
INDEX 01 00:00:00
TRACK 07 AUDIO
TITLE "Remind Me"
PERFORMER "Julie London"
INDEX 00 03:47:13
FILE "07. Remind Me.flac" WAVE
INDEX 01 00:00:00
TRACK 08 AUDIO
TITLE "When She Makes Music"
PERFORMER "Julie London"
INDEX 00 03:10:18
FILE "08. When She Makes Music.flac" WAVE
INDEX 01 00:00:00
TRACK 09 AUDIO
TITLE "When The World Was Young"
PERFORMER "Julie London"
INDEX 00 02:39:65
FILE "09. When The World Was Young.flac" WAVE
INDEX 01 00:00:00
TRACK 10 AUDIO
TITLE "If I Should Lose You"
PERFORMER "Julie London"
INDEX 00 04:39:17
FILE "10. If I Should Lose You.flac" WAVE
INDEX 01 00:00:00
TRACK 11 AUDIO
TITLE "Where Am I To Go"
PERFORMER "Julie London"
INDEX 00 02:47:08
FILE "11. Where Am I To Go.flac" WAVE
INDEX 01 00:00:00
TRACK 12 AUDIO
TITLE "Absent Minded Me"
PERFORMER "Julie London"
INDEX 00 02:52:58
FILE "12. Absent Minded Me.flac" WAVE
INDEX 01 00:00:00
TRACK 13 AUDIO
TITLE "Won't You Come Home Bill Bailey"
PERFORMER "Julie London"
INDEX 00 02:19:58
FILE "13. Won't You Come Home Bill Bailey.flac" WAVE
INDEX 01 00:00:00
TRACK 14 AUDIO
TITLE "I Got It Bad (And That Ain't Good)"
PERFORMER "Julie London"
INDEX 00 02:22:73
FILE "14. I Got It Bad (And That Ain't Good).flac" WAVE
INDEX 01 00:00:00
TRACK 15 AUDIO
TITLE "Saturday Night (Is The Loneliest Night Of The Week)"
PERFORMER "Julie London"
INDEX 00 03:56:30
FILE "15. Saturday Night.flac" WAVE
INDEX 01 00:00:00
TRACK 16 AUDIO
TITLE "God Bless The Child"
PERFORMER "Julie London"
INDEX 00 02:27:15
FILE "16. God Bless The Child.flac" WAVE
INDEX 01 00:00:00
TRACK 17 AUDIO
TITLE "Am I Blue?"
PERFORMER "Julie London"
INDEX 00 03:15:00
FILE "17. Am I Blue.flac" WAVE
INDEX 01 00:00:00
TRACK 18 AUDIO
TITLE "Dream"
PERFORMER "Julie London"
INDEX 00 03:29:15
FILE "18. Dream.flac" WAVE
INDEX 01 00:00:00
TRACK 19 AUDIO
TITLE "Here's That Rainy Day"
PERFORMER "Julie London"
INDEX 00 02:25:00
FILE "19. Here's That Rainy Day.flac" WAVE
INDEX 01 00:00:00
TRACK 20 AUDIO
TITLE "When The Sun Comes Out"
PERFORMER "Julie London"
INDEX 00 03:13:43
FILE "20. When The Sun Comes Out.flac" WAVE
INDEX 01 00:00:00
TRACK 21 AUDIO
TITLE "Can't Get Out Of This Mood"
PERFORMER "Julie London"
INDEX 00 03:12:05
FILE "21. Can't Get Out Of This Mood.flac" WAVE
INDEX 01 00:00:00
TRACK 22 AUDIO
TITLE "I Hadn't Anyone Till You"
PERFORMER "Julie London"
INDEX 00 03:22:20
FILE "22. I Hadn't Anyone Till You.flac" WAVE
INDEX 01 00:00:00
TRACK 23 AUDIO
TITLE "I'll Never Smile Again"
PERFORMER "Julie London"
INDEX 00 02:49:35
FILE "23. I'll Never Smile Again.flac" WAVE
INDEX 01 00:00:00
The End Of The World (1963) / Nice Girls Don't Stay For Breakfast (1967)
Лог создания рипа
EAC extraction logfile from 8. August 2006, 23:10 for CD
Julie London / The End of the World / Nice Girls Don't Stay for Breakfast
Used drive : PLEXTOR DVDR PX-716A Adapter: 4 ID: 1
Read mode : Secure with NO C2, accurate stream, disable cache
Read offset correction : 30
Overread into Lead-In and Lead-Out : No
Used output format : Internal WAV Routines
44.100 Hz; 16 Bit; Stereo
Other options :
Fill up missing offset samples with silence : Yes
Delete leading and trailing silent blocks : No
Installed external ASPI interface
Range status and errors
Selected range
Filename C:\End of the World.wav
Peak level 98.4 %
Range quality 100.0 %
CRC 606F8C21
Copy OK
No errors occured
End of status report
Содержание индексной карты (.CUE)
REM GENRE Jazz
REM DATE 1997
CATALOG 0724385605925
PERFORMER "Julie London"
TITLE "The End Of The World (1963) / Nice Girls Don't Stay For Breakfast (1967)"
FILE "Julie London - The End Of The World & Nice Girls Don't Stay For Breakfast.flac" WAVE
TRACK 01 AUDIO
TITLE "The End Of The World"
PERFORMER "Julie London"
INDEX 01 00:00:00
TRACK 02 AUDIO
TITLE "I Wanna Be Around"
PERFORMER "Julie London"
INDEX 00 02:46:02
INDEX 01 02:47:20
TRACK 03 AUDIO
TITLE "Call Me Irresponsible"
PERFORMER "Julie London"
INDEX 00 04:45:50
INDEX 01 04:47:32
TRACK 04 AUDIO
TITLE "Our Day Will Come"
PERFORMER "Julie London"
INDEX 00 07:34:37
INDEX 01 07:36:02
TRACK 05 AUDIO
TITLE "(I Left My Heart) In San Francisco"
PERFORMER "Julie London"
INDEX 00 09:55:47
INDEX 01 09:58:07
TRACK 06 AUDIO
TITLE "Fly Me To The Moon (In Other Words)"
PERFORMER "Julie London"
INDEX 00 12:45:00
INDEX 01 12:46:60
TRACK 07 AUDIO
TITLE "Days Of Wine And Roses"
PERFORMER "Julie London"
INDEX 00 15:19:42
INDEX 01 15:21:52
TRACK 08 AUDIO
TITLE "I Remember You"
PERFORMER "Julie London"
INDEX 00 18:13:07
INDEX 01 18:15:02
TRACK 09 AUDIO
TITLE "My Coloring Book"
PERFORMER "Julie London"
INDEX 00 20:49:30
INDEX 01 20:51:35
TRACK 10 AUDIO
TITLE "Chances Are"
PERFORMER "Julie London"
INDEX 00 24:22:37
INDEX 01 24:23:70
TRACK 11 AUDIO
TITLE "Desafinado (Slightly Out Of Tune)"
PERFORMER "Julie London"
INDEX 00 27:23:45
INDEX 01 27:24:65
TRACK 12 AUDIO
TITLE "The Good Life"
PERFORMER "Julie London"
INDEX 00 29:28:47
INDEX 01 29:30:70
TRACK 13 AUDIO
TITLE "Nice Girls Don't Stay For Breakfast"
PERFORMER "Julie London"
INDEX 00 32:24:00
INDEX 01 32:25:65
TRACK 14 AUDIO
TITLE "When I Grow Too Old To Dream"
PERFORMER "Julie London"
INDEX 00 34:49:45
INDEX 01 34:51:37
TRACK 15 AUDIO
TITLE "I've Got A Crush On You"
PERFORMER "Julie London"
INDEX 00 37:42:35
INDEX 01 37:44:12
TRACK 16 AUDIO
TITLE "Everything I Have Is Yours"
PERFORMER "Julie London"
INDEX 00 39:55:57
INDEX 01 39:57:65
TRACK 17 AUDIO
TITLE "You Made Me Love You"
PERFORMER "Julie London"
INDEX 00 43:01:17
INDEX 01 43:03:00
TRACK 18 AUDIO
TITLE "Baby, Won't You Please Come Home"
PERFORMER "Julie London"
INDEX 00 45:19:05
INDEX 01 45:21:22
TRACK 19 AUDIO
TITLE "I Didn't Know What Time It Was"
PERFORMER "Julie London"
INDEX 00 47:31:00
INDEX 01 47:32:67
TRACK 20 AUDIO
TITLE "Give A Little Whistle"
PERFORMER "Julie London"
INDEX 00 50:21:17
INDEX 01 50:22:72
TRACK 21 AUDIO
TITLE "I Surrender, Dear"
PERFORMER "Julie London"
INDEX 00 53:27:72
INDEX 01 53:29:70
TRACK 22 AUDIO
TITLE "You Go To My Head"
PERFORMER "Julie London"
INDEX 00 57:08:42
INDEX 01 57:10:42
TRACK 23 AUDIO
TITLE "There Will Never Be Another You"
PERFORMER "Julie London"
INDEX 00 60:15:45
INDEX 01 60:17:47
TRACK 24 AUDIO
TITLE "Mickey Mouse March"
PERFORMER "Julie London"
INDEX 00 63:31:45
INDEX 01 63:33:62
All Through The Night (1965)
Лог создания рипа
EAC extraction logfile from 31. July 2006, 12:55 for CD
Julie London / All Through The Night
Used drive : HL-DT-STDVD-ROM GDR8162B Adapter: 1 ID: 1
Read mode : Secure with NO C2, accurate stream, disable cache
Read offset correction : 102
Overread into Lead-In and Lead-Out : No
Used output format : Internal WAV Routines
44.100 Hz; 16 Bit; Stereo
Other options :
Fill up missing offset samples with silence : Yes
Delete leading and trailing silent blocks : No
Installed external ASPI interface
Range status and errors
Selected range
Filename C:\Eac\Nuova cartella\CDImage.wav
Peak level 100.0 %
Range quality 100.0 %
CRC 59667778
Copy OK
No errors occured
End of status report
Содержание индексной карты (.CUE)
REM GENRE Jazz
REM DATE 1965
REM DISCID 7C07B50A
REM COMMENT "ExactAudioCopy v0.95b2"
PERFORMER "Julie London"
TITLE "All Through The Night"
FILE "Julie London - All Through The Night.flac" WAVE
TRACK 01 AUDIO
TITLE "I've Got You Under My Skin"
PERFORMER "Julie London"
INDEX 01 00:00:00
TRACK 02 AUDIO
TITLE "You Do Something To Me"
PERFORMER "Julie London"
INDEX 00 03:02:07
INDEX 01 03:04:45
TRACK 03 AUDIO
TITLE "Get Out Of Town"
PERFORMER "Julie London"
INDEX 00 05:20:50
INDEX 01 05:23:12
TRACK 04 AUDIO
TITLE "All Through The Night"
PERFORMER "Julie London"
INDEX 00 08:19:47
INDEX 01 08:22:10
TRACK 05 AUDIO
TITLE "So In Love With You"
PERFORMER "Julie London"
INDEX 00 12:54:20
INDEX 01 12:56:57
TRACK 06 AUDIO
TITLE "At Long Last Love"
PERFORMER "Julie London"
INDEX 00 17:02:25
INDEX 01 17:04:62
TRACK 07 AUDIO
TITLE "Easy To Love"
PERFORMER "Julie London"
INDEX 00 20:30:62
INDEX 01 20:33:25
TRACK 08 AUDIO
TITLE "My Heart Belongs To Daddy"
PERFORMER "Julie London"
INDEX 00 23:01:25
INDEX 01 23:03:62
TRACK 09 AUDIO
TITLE "Ev'ry Time We Say Goodbye"
PERFORMER "Julie London"
INDEX 00 25:49:62
INDEX 01 25:52:25
TRACK 10 AUDIO
TITLE "In The Still Of The Night"
PERFORMER "Julie London"
INDEX 00 30:10:25
INDEX 01 30:12:62
Yummy, Yummy, Yummy (1969)
Лог создания рипа
X Lossless Decoder version 20120226 (139.1)
XLD extraction logfile from 2012-04-07 18:46:53 +0000
Julie London / Yummy, Yummy, Yummy
Used drive : TSSTcorp CDDVDW SE-S224Q (revision TS00)
Ripper mode : XLD Secure Ripper
Disable audio cache : OK for the drive with a cache less than 1375KiB
Make use of C2 pointers : NO
Read offset correction : 6
Max retry count : 20
Gap status : Analyzed, Appended (except HTOA)
TOC of the extracted CD
Track | Start | Length | Start sector | End sector
---------------------------------------------------------
1 | 00:00:00 | 03:30:45 | 0 | 15794
2 | 03:30:45 | 02:48:67 | 15795 | 28461
3 | 06:19:37 | 03:22:38 | 28462 | 43649
4 | 09:42:00 | 02:55:12 | 43650 | 56786
5 | 12:37:12 | 03:08:18 | 56787 | 70904
6 | 15:45:30 | 03:06:27 | 70905 | 84881
7 | 18:51:57 | 01:59:68 | 84882 | 93874
8 | 20:51:50 | 02:32:50 | 93875 | 105324
9 | 23:24:25 | 02:06:35 | 105325 | 114809
10 | 25:30:60 | 02:53:42 | 114810 | 127826
11 | 28:24:27 | 02:58:30 | 127827 | 141206
12 | 31:22:57 | 02:40:43 | 141207 | 153249
AccurateRip Summary
Track 01 : OK (confidence 6)
Track 02 : OK (confidence 6)
Track 03 : OK (confidence 6)
Track 04 : OK (confidence 6)
Track 05 : OK (confidence 6)
Track 06 : OK (confidence 6)
Track 07 : OK (confidence 6)
Track 08 : OK (confidence 6)
Track 09 : OK (confidence 6)
Track 10 : OK (confidence 6)
Track 11 : OK (confidence 6)
Track 12 : OK (confidence 6)
->All tracks accurately ripped.
All Tracks
Album gain : -7.31 dB
Peak : 1.000000
Statistics
Read error : 0
Jitter error (maybe fixed) : 0
Retry sector count : 0
Damaged sector count : 0
Track 01
Filename : /Users/graham/Documents/Ripped Music/Julie London/Yummy, Yummy, Yummy/01 - Stoned Soul Picnic.flac
Pre-gap length : 00:02:00
Track gain : -6.66 dB
Peak : 1.000000
CRC32 hash (test run) : D14E6E50
CRC32 hash : D14E6E50
CRC32 hash (skip zero) : B70F069A
AccurateRip signature : 35A3C664
->Accurately ripped! (confidence 6)
Statistics
Read error : 0
Jitter error (maybe fixed) : 0
Retry sector count : 0
Damaged sector count : 0
Track 02
Filename : /Users/graham/Documents/Ripped Music/Julie London/Yummy, Yummy, Yummy/02 - Like to Get to Know You.flac
Pre-gap length : 00:02:38
Track gain : -8.15 dB
Peak : 1.000000
CRC32 hash (test run) : 464914C8
CRC32 hash : 464914C8
CRC32 hash (skip zero) : C0ABBEA7
AccurateRip signature : 60E0E542
->Accurately ripped! (confidence 6)
Statistics
Read error : 0
Jitter error (maybe fixed) : 0
Retry sector count : 0
Damaged sector count : 0
Track 03
Filename : /Users/graham/Documents/Ripped Music/Julie London/Yummy, Yummy, Yummy/03 - Light My Fire.flac
Pre-gap length : 00:02:62
Track gain : -6.75 dB
Peak : 1.000000
CRC32 hash (test run) : A20314DF
CRC32 hash : A20314DF
CRC32 hash (skip zero) : B9C3FBB5
AccurateRip signature : 08E09818
->Accurately ripped! (confidence 6)
Statistics
Read error : 0
Jitter error (maybe fixed) : 0
Retry sector count : 0
Damaged sector count : 0
Track 04
Filename : /Users/graham/Documents/Ripped Music/Julie London/Yummy, Yummy, Yummy/04 - It's Nice to Be With You.flac
Pre-gap length : 00:02:25
Track gain : -5.38 dB
Peak : 0.988617
CRC32 hash (test run) : 66CC22C9
CRC32 hash : 66CC22C9
CRC32 hash (skip zero) : 9B483C3E
AccurateRip signature : 3861DF30
->Accurately ripped! (confidence 6)
Statistics
Read error : 0
Jitter error (maybe fixed) : 0
Retry sector count : 0
Damaged sector count : 0
Track 05
Filename : /Users/graham/Documents/Ripped Music/Julie London/Yummy, Yummy, Yummy/05 - Sunday Mornin'.flac
Pre-gap length : 00:02:72
Track gain : -7.07 dB
Peak : 1.000000
CRC32 hash (test run) : 7404A72B
CRC32 hash : 7404A72B
CRC32 hash (skip zero) : D9593DAA
AccurateRip signature : FF97F968
->Accurately ripped! (confidence 6)
Statistics
Read error : 0
Jitter error (maybe fixed) : 0
Retry sector count : 0
Damaged sector count : 0
Track 06
Filename : /Users/graham/Documents/Ripped Music/Julie London/Yummy, Yummy, Yummy/06 - Hushabye Mountain.flac
Pre-gap length : 00:02:53
Track gain : -4.91 dB
Peak : 0.999969
CRC32 hash (test run) : 21A2A321
CRC32 hash : 21A2A321
CRC32 hash (skip zero) : EAF57DFC
AccurateRip signature : 7DD9A863
->Accurately ripped! (confidence 6)
Statistics
Read error : 0
Jitter error (maybe fixed) : 0
Retry sector count : 0
Damaged sector count : 0
Track 07
Filename : /Users/graham/Documents/Ripped Music/Julie London/Yummy, Yummy, Yummy/07 - Mighty Quinn (Quinn the Eskimo).flac
Pre-gap length : 00:02:60
Track gain : -8.35 dB
Peak : 1.000000
CRC32 hash (test run) : 31EC66DB
CRC32 hash : 31EC66DB
CRC32 hash (skip zero) : 48D1959F
AccurateRip signature : ED2CBBBF
->Accurately ripped! (confidence 6)
Statistics
Read error : 0
Jitter error (maybe fixed) : 0
Retry sector count : 0
Damaged sector count : 0
Track 08
Filename : /Users/graham/Documents/Ripped Music/Julie London/Yummy, Yummy, Yummy/08 - Come to Me Slowly.flac
Pre-gap length : 00:03:10
Track gain : -6.98 dB
Peak : 0.999969
CRC32 hash (test run) : B674266F
CRC32 hash : B674266F
CRC32 hash (skip zero) : CD07FAA3
AccurateRip signature : 41F8B1C8
->Accurately ripped! (confidence 6)
Statistics
Read error : 0
Jitter error (maybe fixed) : 0
Retry sector count : 0
Damaged sector count : 0
Track 09
Filename : /Users/graham/Documents/Ripped Music/Julie London/Yummy, Yummy, Yummy/09 - And I Love Him.flac
Pre-gap length : 00:02:38
Track gain : -7.27 dB
Peak : 1.000000
CRC32 hash (test run) : AFBA9256
CRC32 hash : AFBA9256
CRC32 hash (skip zero) : 085DDA7F
AccurateRip signature : 1D0A537D
->Accurately ripped! (confidence 6)
Statistics
Read error : 0
Jitter error (maybe fixed) : 0
Retry sector count : 0
Damaged sector count : 0
Track 10
Filename : /Users/graham/Documents/Ripped Music/Julie London/Yummy, Yummy, Yummy/10 - Without Him.flac
Pre-gap length : 00:02:70
Track gain : -8.33 dB
Peak : 1.000000
CRC32 hash (test run) : B61B6BE4
CRC32 hash : B61B6BE4
CRC32 hash (skip zero) : 7E118A95
AccurateRip signature : F43C066C
->Accurately ripped! (confidence 6)
Statistics
Read error : 0
Jitter error (maybe fixed) : 0
Retry sector count : 0
Damaged sector count : 0
Track 11
Filename : /Users/graham/Documents/Ripped Music/Julie London/Yummy, Yummy, Yummy/11 - Yummy, Yummy, Yummy.flac
Pre-gap length : 00:02:42
Track gain : -6.55 dB
Peak : 1.000000
CRC32 hash (test run) : 8709BBA2
CRC32 hash : 8709BBA2
CRC32 hash (skip zero) : 19D97B4C
AccurateRip signature : 1C7BD24C
->Accurately ripped! (confidence 6)
Statistics
Read error : 0
Jitter error (maybe fixed) : 0
Retry sector count : 0
Damaged sector count : 0
Track 12
Filename : /Users/graham/Documents/Ripped Music/Julie London/Yummy, Yummy, Yummy/12 - Louie Louie.flac
Pre-gap length : 00:03:20
Track gain : -7.64 dB
Peak : 1.000000
CRC32 hash (test run) : FCDB2BD4
CRC32 hash : FCDB2BD4
CRC32 hash (skip zero) : C0B42829
AccurateRip signature : C50C4699
->Accurately ripped! (confidence 6)
Statistics
Read error : 0
Jitter error (maybe fixed) : 0
Retry sector count : 0
Damaged sector count : 0
No errors occurred
End of status report
Содержание индексной карты (.CUE)
TITLE "Yummy, Yummy, Yummy"
PERFORMER "Julie London"
CATALOG 0724356098626
REM DATE "2005"
REM DISCID 9907FB0C
FILE "01. Stoned Soul Picnic.flac" WAVE
TRACK 01 AUDIO
TITLE "Stoned Soul Picnic"
INDEX 01 00:00:00
TRACK 02 AUDIO
TITLE "Like To Get To Know You"
INDEX 00 03:28:07
FILE "02. Like To Get To Know You.flac" WAVE
INDEX 01 00:00:00
TRACK 03 AUDIO
TITLE "Light My Fire"
INDEX 00 02:46:05
FILE "03. Light My Fire.flac" WAVE
INDEX 01 00:00:00
TRACK 04 AUDIO
TITLE "It's Nice To Be With You"
INDEX 00 03:20:13
FILE "04. It's Nice To Be With You.flac" WAVE
INDEX 01 00:00:00
TRACK 05 AUDIO
TITLE "Sunday Mornin'"
INDEX 00 02:52:15
FILE "05. Sunday Mornin'.flac" WAVE
INDEX 01 00:00:00
TRACK 06 AUDIO
TITLE "Hushabye Mountain"
INDEX 00 03:05:40
FILE "06. Hushabye Mountain.flac" WAVE
INDEX 01 00:00:00
TRACK 07 AUDIO
TITLE "Mighty Quinn (Quinn The Eskimo)"
INDEX 00 03:03:42
FILE "07. Mighty Quinn (Quinn The Eskimo).flac" WAVE
INDEX 01 00:00:00
TRACK 08 AUDIO
TITLE "Come To Me Slowly"
INDEX 00 01:56:58
FILE "08. Come To Me Slowly.flac" WAVE
INDEX 01 00:00:00
TRACK 09 AUDIO
TITLE "And I Love Him"
INDEX 00 02:30:12
FILE "09. And I Love Him.flac" WAVE
INDEX 01 00:00:00
TRACK 10 AUDIO
TITLE "Without Him"
INDEX 00 02:03:40
FILE "10. Without Him.flac" WAVE
INDEX 01 00:00:00
TRACK 11 AUDIO
TITLE "Yummy, Yummy, Yummy"
INDEX 00 02:51:00
FILE "11. Yummy, Yummy, Yummy.flac" WAVE
INDEX 01 00:00:00
TRACK 12 AUDIO
TITLE "Louie Louie"
INDEX 00 02:55:10
FILE "12. Louie Louie.flac" WAVE
INDEX 01 00:00:00
Twin Best Now (2 CD) (1992)
CD 1
Лог создания рипа
EAC extraction logfile from 5. January 2007, 14:05 for CD
Julie London / Twin Best Now
Used drive : HL-DT-STCD-RW GCE-8526B Adapter: 1 ID: 1
Read mode : Secure with NO C2, accurate stream, disable cache
Read offset correction : 6
Overread into Lead-In and Lead-Out : No
Used output format : Internal WAV Routines
44.100 Hz; 16 Bit; Stereo
Other options :
Fill up missing offset samples with silence : Yes
Delete leading and trailing silent blocks : No
Installed external ASPI interface
Range status and errors
Selected range
Filename C:\EAC\Julie London - Twin Best Now [FLAC]\CD1\Julie London - Twin Best Now.wav
Peak level 100.0 %
Range quality 100.0 %
CRC 5406AF26
Copy OK
No errors occured
End of status report
Содержание индексной карты (.CUE)
REM GENRE Jazz
REM DATE 1992
REM DISCID 2A0CF814
REM COMMENT "ExactAudioCopy v0.95b3"
PERFORMER "Julie London"
TITLE "Twin Best Now (disc 1)"
FILE "Julie London - Twin Best Now (disc 1).flac" WAVE
TRACK 01 AUDIO
TITLE "I Left My Heart In San Francisco"
PERFORMER "Julie London"
INDEX 01 00:00:00
TRACK 02 AUDIO
TITLE "Sentimental Journey"
PERFORMER "Julie London"
INDEX 00 02:50:35
INDEX 01 02:53:10
TRACK 03 AUDIO
TITLE "Misty"
PERFORMER "Julie London"
INDEX 00 05:19:67
INDEX 01 05:22:42
TRACK 04 AUDIO
TITLE "Cry Me A River"
PERFORMER "Julie London"
INDEX 00 08:32:50
INDEX 01 08:35:25
TRACK 05 AUDIO
TITLE "Fly Me To The Mooon"
PERFORMER "Julie London"
INDEX 00 11:32:02
INDEX 01 11:34:52
TRACK 06 AUDIO
TITLE "Besame Mucho"
PERFORMER "Julie London"
INDEX 00 14:08:55
INDEX 01 14:11:30
TRACK 07 AUDIO
TITLE "A Taste Of Honey"
PERFORMER "Julie London"
INDEX 00 16:20:10
INDEX 01 16:22:60
TRACK 08 AUDIO
TITLE "Summertime"
PERFORMER "Julie London"
INDEX 00 19:43:45
INDEX 01 19:46:20
TRACK 09 AUDIO
TITLE "You And The Night And The Music"
PERFORMER "Julie London"
INDEX 00 22:55:60
INDEX 01 22:58:35
TRACK 10 AUDIO
TITLE "Theme From A Summer Place"
PERFORMER "Julie London"
INDEX 00 25:37:50
INDEX 01 25:40:25
TRACK 11 AUDIO
TITLE "The Boy From Ipamena"
PERFORMER "Julie London"
INDEX 00 28:02:12
INDEX 01 28:04:62
TRACK 12 AUDIO
TITLE "As Time Goes By"
PERFORMER "Julie London"
INDEX 00 30:41:37
INDEX 01 30:44:12
TRACK 13 AUDIO
TITLE "The Days Of Wine And Roses"
PERFORMER "Julie London"
INDEX 00 33:54:67
INDEX 01 33:57:42
TRACK 14 AUDIO
TITLE "Slightly Out Of Tune (Desafinado)"
PERFORMER "Julie London"
INDEX 00 36:50:25
INDEX 01 36:53:00
TRACK 15 AUDIO
TITLE "What Is This Thingh Called Love"
PERFORMER "Julie London"
INDEX 00 38:58:62
INDEX 01 39:01:37
TRACK 16 AUDIO
TITLE "You'd Be So Nice To Come Home To"
PERFORMER "Julie London"
INDEX 00 40:47:07
INDEX 01 40:49:57
TRACK 17 AUDIO
TITLE "Blues In The Night"
PERFORMER "Julie London"
INDEX 00 43:03:30
INDEX 01 43:06:05
TRACK 18 AUDIO
TITLE "Don't Smoke In Bed"
PERFORMER "Julie London"
INDEX 00 46:57:37
INDEX 01 47:00:12
TRACK 19 AUDIO
TITLE "Black Coffee"
PERFORMER "Julie London"
INDEX 00 49:25:05
INDEX 01 49:27:55
TRACK 20 AUDIO
TITLE "'Round Midnight"
PERFORMER "Julie London"
INDEX 00 52:25:42
INDEX 01 52:28:17
CD 2
Лог создания рипа
EAC extraction logfile from 5. January 2007, 14:25 for CD
Julie London / Twin Best Now (Cd 2)
Used drive : HL-DT-STCD-RW GCE-8526B Adapter: 1 ID: 1
Read mode : Secure with NO C2, accurate stream, disable cache
Read offset correction : 6
Overread into Lead-In and Lead-Out : No
Used output format : Internal WAV Routines
44.100 Hz; 16 Bit; Stereo
Other options :
Fill up missing offset samples with silence : Yes
Delete leading and trailing silent blocks : No
Installed external ASPI interface
Range status and errors
Selected range
Filename C:\EAC\Julie London - Twin Best Now [FLAC]\CD2\Julie London - Twin Best Now (Cd 2).wav
Peak level 100.0 %
Range quality 100.0 %
CRC 12BEBA7B
Copy OK
No errors occured
End of status report
Содержание индексной карты (.CUE)
REM GENRE Jazz
REM DATE 1992
REM DISCID 0A0C7514
REM COMMENT "ExactAudioCopy v0.95b3"
PERFORMER "Julie London"
TITLE "Twin Best Now (disc 2)"
FILE "Julie London - Twin Best Now (disc 2).flac" WAVE
TRACK 01 AUDIO
TITLE "Love Letters"
PERFORMER "Julie London"
INDEX 01 00:00:00
TRACK 02 AUDIO
TITLE "Never On Sunday"
PERFORMER "Julie London"
INDEX 00 02:52:37
INDEX 01 02:55:12
TRACK 03 AUDIO
TITLE "Come On-A My House"
PERFORMER "Julie London"
INDEX 00 05:20:12
INDEX 01 05:22:62
TRACK 04 AUDIO
TITLE "But Not For Me"
PERFORMER "Julie London"
INDEX 00 08:00:45
INDEX 01 08:03:20
TRACK 05 AUDIO
TITLE "When I Fall In Love"
PERFORMER "Julie London"
INDEX 00 10:27:60
INDEX 01 10:30:35
TRACK 06 AUDIO
TITLE "The End Of The World"
PERFORMER "Julie London"
INDEX 00 13:51:30
INDEX 01 13:54:05
TRACK 07 AUDIO
TITLE "Sway (Quien Sera)"
PERFORMER "Julie London"
INDEX 00 16:40:32
INDEX 01 16:43:07
TRACK 08 AUDIO
TITLE "I'm In The Mood For Love"
PERFORMER "Julie London"
INDEX 00 19:18:00
INDEX 01 19:20:50
TRACK 09 AUDIO
TITLE "Fascination"
PERFORMER "Julie London"
INDEX 00 21:48:50
INDEX 01 21:51:25
TRACK 10 AUDIO
TITLE "What's New"
PERFORMER "Julie London"
INDEX 00 23:49:00
INDEX 01 23:51:50
TRACK 11 AUDIO
TITLE "Love For Sale"
PERFORMER "Julie London"
INDEX 00 26:27:10
INDEX 01 26:29:60
TRACK 12 AUDIO
TITLE "Charade"
PERFORMER "Julie London"
INDEX 00 29:32:42
INDEX 01 29:35:17
TRACK 13 AUDIO
TITLE "Vaya Con Dios"
PERFORMER "Julie London"
INDEX 00 32:01:15
INDEX 01 32:03:65
TRACK 14 AUDIO
TITLE "More"
PERFORMER "Julie London"
INDEX 00 34:43:30
INDEX 01 34:46:05
TRACK 15 AUDIO
TITLE "Hello, Dolly!"
PERFORMER "Julie London"
INDEX 00 37:26:35
INDEX 01 37:29:10
TRACK 16 AUDIO
TITLE "I'Ve Got You Under My Skin"
PERFORMER "Julie London"
INDEX 00 40:28:07
INDEX 01 40:30:57
TRACK 17 AUDIO
TITLE "Dream"
PERFORMER "Julie London"
INDEX 00 43:32:15
INDEX 01 43:34:65
TRACK 18 AUDIO
TITLE "Amor"
PERFORMER "Julie London"
INDEX 00 45:58:70
INDEX 01 46:01:45
TRACK 19 AUDIO
TITLE "'S Wonderful"
PERFORMER "Julie London"
INDEX 00 48:45:17
INDEX 01 48:47:67
TRACK 20 AUDIO
TITLE "My Heart Belongs To Daddy"
PERFORMER "Julie London"
INDEX 00 50:20:45
INDEX 01 50:23:20
[Профиль]  [ЛС] 

Клава Сирень

Стаж: 10 лет 3 месяца

Сообщений: 434

Клава Сирень · 01-Ноя-12 17:55 (спустя 2 часа 16 мин.)

papa1954, а какой смысл создания этой "коллекции", если все это уже было выложено Вами ранее?
[Профиль]  [ЛС] 

papa1954

Top Seed 09* 10240r

Стаж: 12 лет 4 месяца

Сообщений: 16944

papa1954 · 01-Ноя-12 18:48 (спустя 52 мин., ред. 02-Ноя-12 07:01)

Клава Сирень писал(а):
56082387papa1954, а какой смысл создания этой "коллекции", если все это уже было выложено Вами ранее?
Эта коллекция будет еще дополнена 3-5 (а может и больше) альбомами из тех что раздает J23enya - примерно половине его раздач должен быть присвоен статус "сомнительно".
Вот этот альбом Julie London - Cry Me A River сюда точно не войдет - будет раздаваться отдельно.
А вообще-то смысл создания таких коллекций в сокращении числа торрентов, снижении нагрузки на трекер, обеспечении живучести раздач.
[Профиль]  [ЛС] 

BaluBaly

Стаж: 9 лет 1 месяц

Сообщений: 125


BaluBaly · 02-Ноя-12 19:30 (спустя 1 день)

papa1954 писал(а):
56083545
Клава Сирень писал(а):
56082387papa1954, а какой смысл создания этой "коллекции", если все это уже было выложено Вами ранее?
Вот этот альбом Julie London - Cry Me A River сюда точно не войдет - будет раздаваться отдельно.
Наверно, как и остальным Бест офф, и т.д. нет смысла присутствовать в вашей подборке, это логично. Спасибо, за труды.
[Профиль]  [ЛС] 

ernfu

Стаж: 9 лет 11 месяцев

Сообщений: 156

ernfu · 04-Ноя-12 22:16 (спустя 2 дня 2 часа, ред. 04-Ноя-12 22:16)

До коллекции не хватает 8 альбомов в lossless с дисков. By Myself (Julie London album), With Body & Soul, Easy Does It (Julie London album), Our Fair Lady, Send for Me, Whatever Julie Wants, Julie London (album), In Person at the Americana. Вот бы кто выложил... было бы здорово!
[Профиль]  [ЛС] 

papa1954

Top Seed 09* 10240r

Стаж: 12 лет 4 месяца

Сообщений: 16944

papa1954 · 06-Ноя-12 20:48 (спустя 1 день 22 часа)

Торрент-файл изменен 06.11.2012 - добавил 6 альбомов:
Lonely Girl (1956) / Make Love To Me (1957)
Julie (1957) / Love On The Rocks (1963)
The End Of The World (1963) / Nice Girls Don't Stay For Breakfast (1967)
All Through The Night (1965)
Yummy, Yummy, Yummy (1969)
Twin Best Now (2 CD) (1992)
[Профиль]  [ЛС] 

purpleslon

Стаж: 12 лет

Сообщений: 205


purpleslon · 01-Мар-13 07:45 (спустя 3 месяца 22 дня)

Большое Cпасибо!!!
[Профиль]  [ЛС] 

abbot33

Стаж: 11 лет 5 месяцев

Сообщений: 9


abbot33 · 28-Фев-14 21:34 (спустя 11 месяцев)

Низкий поклон и огромное спасибо!
[Профиль]  [ЛС] 

cortazar

Стаж: 12 лет

Сообщений: 329

cortazar · 25-Окт-14 05:43 (спустя 7 месяцев, ред. 25-Окт-14 05:43)

Думал, все попрятали.
Ныне залез на ю...туП, а там она - Julia London -охороненавычеркнутапохерена.хрензнаеткакимчОртом. что творится в этом мире? Если б не треккер - свалил бы в другую реальность.
Релизер, мои благодарности....
Если завтра с йутупа уберут Махалию Джексон и Мезза Меззроу, устрою на вашей планете пару революций (в Буркина-Фасо и Уругвае), пару землетрясений (мне ближе Япония и Лос-Анхелес), три вулкана взорву (Фудзи, сопка Ключевая, Йелоустоун)... а дальше, живите, как сможете...
[Профиль]  [ЛС] 

pc-roman

Стаж: 9 лет 3 месяца

Сообщений: 52


pc-roman · 28-Янв-15 08:17 (спустя 3 месяца 3 дня)

А я только совсем недавно решил залезть в этот раздел, сразу прошёлся по топику, из всего, что показалось мне нудным, это совсем отличается. Особенно прекрасное произведение The End Of The World, просто восхитительный альбом. Fly Me To The Moon где-то я раньше слышал, я думаю, что в рекламе, а вот в какой - уже не помню. Я начинающий в Джазе, а что ещё такого посмотреть можно? Можно популярное.
[Профиль]  [ЛС] 

purpleslon

Стаж: 12 лет

Сообщений: 205


purpleslon · 19-Июл-15 00:27 (спустя 5 месяцев 21 день)

Cпасибо большое!
[Профиль]  [ЛС] 

zenevg

Стаж: 8 лет 3 месяца

Сообщений: 98


zenevg · 15-Окт-15 23:32 (спустя 2 месяца 27 дней, ред. 15-Окт-15 23:32)

Поясните, плиз, почему, когда пытаешься скачивать, то в списке нет вот этого: Julie Is Her Name (1955)?????????????
[Профиль]  [ЛС] 

ReeferMadnesss

Стаж: 7 лет 8 месяцев

Сообщений: 1249

ReeferMadnesss · 08-Фев-16 22:37 (спустя 3 месяца 23 дня)

Many many thanks for sharing this collection
[Профиль]  [ЛС] 

belyaev.limuzil

Стаж: 8 лет 5 месяцев

Сообщений: 28

belyaev.limuzil · 19-Фев-16 20:04 (спустя 10 дней)

Огромнейшее спасибо!!!Только,и только благодаря этой женщине я приоткрыл для себя,мир джаза!!!Ну моё это...
[Профиль]  [ЛС] 

popo7080

Стаж: 8 лет 11 месяцев

Сообщений: 70

popo7080 · 07-Дек-17 21:56 (спустя 1 год 9 месяцев)

Огромное спасибо автору раздачи
[Профиль]  [ЛС] 
 
Ответить
Loading...
Error