[SACD-R][TR32][SM] Vanessa Paradis - Love Songs - 2013 (Chanson française)

Страницы:  1
Ответить
Автор
Сообщение

zzayyazz

Стаж: 11 лет 10 месяцев

Сообщений: 2934


zzayyazz · 13-Авг-13 01:45 (6 лет назад, ред. 13-Авг-13 02:12)

релиз организован по просьбе - для любителей "ловли блох" и хорошей музыки.
"...а как эти 32/44 слушать без компьютера?... - Хм... Техника-то есть, да много ль у кого... Ну, а в бытовом формате наверное так:"
Vanessa Paradis - Love Songs
Жанр: Сhanson française
Запись и мастер-микс альбома: Erwin ‘Wax’ Autrique (Wax studio)
Официальный релиз: 13.05.2013
Исходная фонограмма: цифровой пре-мастер 32/44,1 (не публикуется)
Формат потока контента: DSD64
Тип конверсии: Trellis F
Формат проекта в раздаче: SACD-R.iso (2048)
Тип авторизации: non-protected Service Mode
Продолжительность: 1:17:20
Треклист
1. L’Au-delà 3:21
2. Love Song 3:31
3. C’est quoi ? 3:11
4. Les espaces et les sentiments 3:07
5. Prends garde à moi 4:04
6. Tu pars comme on revient 2:55
7. The Dark, It Comes [avec Carl Barât] 4:00
8. Rocking-Chair 4:20
9. Station Quatre septembre 3:29
10. Tu vois c’que j’vois 3:13
11. La crème 2:42
12. Le rempart 3:11
13. Mi amor 3:07
14. New Year 3:07
15. Tu si na cosa grande 2:50
16. Sombreros 4:23
17. Être celle 3:38
18. Doorway 2:58
19. La Chanson des vieux cons 4:44
20. Les roses roses [avec Benjamin Biolay] 3:51
21. Plus d'amour 3:54
22. Encore 3:40
Что это?
Оба цифровых мастера этого альбома (16-бит CD-Master и 24-бит Qualité Studio Master) представляют собой двойное увеличение уровня этого пре-мастера (+6dB) с динамической компрессией во избежание клиппинга (срезавшей последние торчавшие над кирпичом волновой формы волоски и всплески) и сохранение с ликвидацией нижних разрядов. Не следует, однако, надеяться, что эта версия значительно превосходит окончательные мастера в динамике. Вся основная компрессия была применена на стадии цифрового микса, так что "добивать" было почти нечего... Практически 24-бит версия отличается от 16-битовой только глубиной квантования, а 32бит версия еще чуть-чуть кое-где динамическим диапазоном, будучи к тому же вдвое тише. Разница тем не менее (не только в громкости) там и там слышна (если воспроизводящее оборудование позволяет ее донести, разумеется).
А в цифрах выглядит так:
DR CD1
--------------------------------------------------------------------------------
Analyzed: Vanessa Paradis / Love Songs
--------------------------------------------------------------------------------
DR Peak RMS Duration Track
--------------------------------------------------------------------------------
DR9 -0.13 dB -11.12 dB 3:19 01-L'Au-delà
DR7 0.00 dB -9.33 dB 3:31 02-Love Song
DR9 -0.19 dB -12.79 dB 3:11 03-C'est quoi ?
DR5 0.00 dB -6.64 dB 3:08 04-Les Espaces et les Sentiments
DR6 0.00 dB -7.71 dB 4:04 05-Prends garde à moi
DR5 0.00 dB -8.00 dB 2:56 06-Tu pars comme on revient
DR7 0.00 dB -7.70 dB 4:01 07-The Dark It Comes (avec Carl Barât)
DR7 0.00 dB -9.46 dB 4:20 08-Rocking-Chair
DR7 0.00 dB -8.38 dB 3:29 09-Station Quatre-Septembre
DR7 0.00 dB -8.54 dB 3:14 10-Tu vois c'que j'vois
--------------------------------------------------------------------------------
Number of tracks: 10
Official DR value: DR7
Samplerate: 44100 Hz
Channels: 2
Bits per sample: 16
Bitrate: 849 kbps
Codec: FLAC
================================================================================
DR CD2
--------------------------------------------------------------------------------
Analyzed: Vanessa Paradis / Love Songs
--------------------------------------------------------------------------------
DR Peak RMS Duration Track
--------------------------------------------------------------------------------
DR7 0.00 dB -9.07 dB 2:40 01-La Crème
DR10 -0.20 dB -13.13 dB 3:11 02-Le Rempart
DR9 -0.08 dB -9.87 dB 3:07 03-Mi amor
DR7 0.00 dB -8.29 dB 3:08 04-New Year
DR9 0.00 dB -11.28 dB 2:51 05-Tu si na cosa grande
DR7 0.00 dB -9.09 dB 4:23 06-Sombreros
DR10 0.00 dB -12.30 dB 3:38 07-Être celle
DR6 0.00 dB -8.04 dB 2:59 08-Doorway
DR9 0.00 dB -11.08 dB 4:44 09-La Chanson des vieux cons
DR8 0.00 dB -11.82 dB 3:49 10-Les Roses roses (avec Benjamin Biolay)
DR8 0.00 dB -10.22 dB 3:55 11-Plus d'amour
DR7 0.00 dB -9.25 dB 3:41 12-Encore
--------------------------------------------------------------------------------
Number of tracks: 12
Official DR value: DR8
Samplerate: 44100 Hz
Channels: 2
Bits per sample: 16
Bitrate: 866 kbps
Codec: FLAC
================================================================================
DR 24-bit Qualité Studio Master
--------------------------------------------------------------------------------
Analyzed: Vanessa Paradis / Love Songs
--------------------------------------------------------------------------------
DR Peak RMS Duration Track
--------------------------------------------------------------------------------
DR9 -0.13 dB -11.12 dB 3:19 01-L'Au-Delà
DR7 0.00 dB -9.33 dB 3:31 02-Love Song
DR9 -0.17 dB -12.79 dB 3:11 03-C'Est Quoi ?
DR5 0.00 dB -6.64 dB 3:07 04-Les Espaces & Les Sentiments
DR6 0.00 dB -7.71 dB 4:04 05-Prends Garde A Moi
DR5 0.00 dB -8.00 dB 2:56 06-Tu Pars Comme On Revient
DR7 0.00 dB -7.70 dB 4:01 07-The Dark It Comes
DR7 0.00 dB -9.46 dB 4:20 08-Rocking Chair
DR7 0.00 dB -8.38 dB 3:29 09-Station Quatre Septembre
DR7 0.00 dB -8.41 dB 3:09 10-Tu Vois C' Que Je Vois
DR7 0.00 dB -9.07 dB 2:40 11-La Crème
DR10 -0.20 dB -13.13 dB 3:11 12-Le Rempart
DR9 -0.08 dB -9.87 dB 3:07 13-Mi Amor
DR7 0.00 dB -8.29 dB 3:08 14-New Year
DR9 0.00 dB -11.28 dB 2:51 15-Tu Si Na Cosa Grande
DR7 0.00 dB -9.09 dB 4:23 16-Sombreros
DR10 0.00 dB -12.30 dB 3:38 17-Etre Celle
DR6 0.00 dB -8.04 dB 2:58 18-Doorway
DR9 0.00 dB -11.08 dB 4:44 19-La Chanson Des Vieux Cons
DR8 0.00 dB -11.82 dB 3:49 20-Les Roses Roses
DR8 0.00 dB -10.28 dB 3:57 21-Plus D'Amour
DR7 0.00 dB -9.24 dB 3:41 22-Encore
--------------------------------------------------------------------------------
Number of tracks: 22
Official DR value: DR8
Samplerate: 44100 Hz
Channels: 2
Bits per sample: 24
Bitrate: 1572 kbps
Codec: FLAC
================================================================================
DR 32-bit pre-master
--------------------------------------------------------------------------------
Analyzed: Vanessa Paradis / Love Songs
--------------------------------------------------------------------------------
DR Peak RMS Duration Track
--------------------------------------------------------------------------------
DR9 -6.13 dB -17.11 dB 3:19 01-L'Au-Dela
DR7 -5.39 dB -15.33 dB 3:31 02-Love Song
DR9 -6.17 dB -18.78 dB 3:11 03-C'Est Quoi ?
DR7 -4.21 dB -12.64 dB 3:07 04-Les Espaces & Les Sentiments
DR7 -4.81 dB -13.70 dB 4:04 05-Prends Garde A Moi
DR6 -4.84 dB -13.99 dB 2:56 06-Tu Pars Comme On Revient
DR8 -4.99 dB -13.70 dB 4:01 07-The Dark It Comes
DR8 -4.88 dB -15.46 dB 4:20 08-Rocking Chair
DR8 -4.72 dB -14.38 dB 3:29 09-Station Quatre Septembre
DR8 -5.33 dB -14.47 dB 3:09 10-Tu Vois C' Que Je Vois
DR8 -4.60 dB -15.06 dB 2:40 11-La Creme
DR10 -6.19 dB -19.12 dB 3:11 12-Le Rempart
DR9 -6.08 dB -15.87 dB 3:07 13-Mi Amor
DR7 -5.69 dB -14.29 dB 3:08 14-New Year
DR9 -5.73 dB -17.27 dB 2:51 15-Tu Si Na Cosa Grande
DR9 -4.26 dB -15.09 dB 4:23 16-Sombreros
DR10 -5.65 dB -18.30 dB 3:38 17-Etre Celle
DR7 -5.28 dB -14.03 dB 2:58 18-Doorway
DR10 -4.49 dB -17.08 dB 4:44 19-La Chanson Des Vieux Cons
DR9 -5.09 dB -17.82 dB 3:49 20-Les Roses Roses
DR8 -4.30 dB -16.27 dB 3:57 21-Plus D'Amour
DR8 -5.56 dB -15.24 dB 3:41 22-Encore
--------------------------------------------------------------------------------
Number of tracks: 22
Official DR value: DR8
Samplerate: 44100 Hz
Channels: 2
Bits per sample: 32
Bitrate: 2822 kbps
Codec: PCM
================================================================================
Хочу надеяться, никому не придет в голову сравнивать спектры
Что касается собственного скромного мнения, никогда не смогу понять смысла в микшировании с частотой квантования 1fs независимо от глубины. При таком пренебрежительном отношении к импульсу никакой глубиной не спасти естественность звука. А альбом-то стОит DXD - то-то была бы ЛЮБОВЬ...
Зачем это? (важно)
Чтобы послушать посредством прямой DSD->analog конверсии. В случае отсутствия ЦАПа, поддерживающего такой режим, на выходе будет результат тройной конверсии плюс весьма вероятно ограничение глубины в 24 бит. Выиграет ли такой вариант прослушивания у регулярного 24-бит Qualité Studio Master - вопрос открытый...
Локализация: эта версия подготовлена специально для rutrckr.com© исключительно в ознакомительных целях, и не призвана соответствовать промышленным стандартам и претендовать на близость к SACD независимо от наличия или отсутствия планов выпуска последнего. Убедительная просьба воздержаться от перераздачи на других ресурсах и использования контента в других публикациях.
Download
Сайт не распространяет и не хранит электронные версии произведений, а лишь предоставляет доступ к создаваемому пользователями каталогу ссылок на торрент-файлы, которые содержат только списки хеш-сумм
Как скачивать? (для скачивания .torrent файлов необходима регистрация)
[Профиль]  [ЛС] 

doca

Стаж: 13 лет 1 месяц

Сообщений: 308


doca · 13-Авг-13 22:12 (спустя 20 часов, ред. 13-Авг-13 22:12)

zzayyazz
Спасибо за публикацию. Наибольший интерес и ценность (для меня) представляют Ваши комментарии, а не содержимое раздачи. Еще раз спасибо!
[Профиль]  [ЛС] 

PanteleyFilatov

Стаж: 6 лет 3 месяца

Сообщений: 945


PanteleyFilatov · 15-Авг-13 23:09 (спустя 2 дня)

Суперски!!! просто суперски.... не слушать , а читать комментарий к своей же работе )))
[Профиль]  [ЛС] 

espritto

Стаж: 9 лет 6 месяцев

Сообщений: 500


espritto · 16-Авг-13 18:26 (спустя 19 часов)

А можно выложить именно 24 или 32 бита и 44 кГц?
[Профиль]  [ЛС] 

zzayyazz

Стаж: 11 лет 10 месяцев

Сообщений: 2934


zzayyazz · 16-Авг-13 20:01 (спустя 1 час 34 мин.)

espritto А кто Вам запретит?. Выкладывайте. Мне таких полномочий не предоставляли. Во всяком случае до тех пор, пока Qualité Studio Master остается в активной продаже на gobuz. Снимут с витрины - тогда...
[Профиль]  [ЛС] 

doca

Стаж: 13 лет 1 месяц

Сообщений: 308


doca · 17-Авг-13 19:00 (спустя 22 часа)

Позвольте поинтересоваться где можно почитать о "Тип конверсии: Trellis F"?
[Профиль]  [ЛС] 

Dmitrylo

Стаж: 11 лет 5 месяцев

Сообщений: 93


Dmitrylo · 19-Дек-13 18:15 (спустя 4 месяца 1 день)

То есть запись изначально в PCM перевели в DSD? Зачем?
"...В случае отсутствия ЦАПа, поддерживающего такой режим, на выходе будет результат тройной конверсии плюс весьма вероятно ограничение глубины в 24 бит. Выиграет ли такой вариант прослушивания у регулярного 24-бит Qualité Studio Master - вопрос открытый..."
Да нечего тут открывать. Формат DSD изначально ущербный и конвертить в него PCM - это, как минимум, странно.
[Профиль]  [ЛС] 

zzayyazz

Стаж: 11 лет 10 месяцев

Сообщений: 2934


zzayyazz · 22-Дек-13 15:52 (спустя 2 дня 21 час, ред. 29-Дек-13 08:30)

Dmitrylo Уважаемый коллега! Когда Вам предоставят студийный цифровой мастер в 32бит без разрешения распространения в оригинальном формате, Вы сможете распорядиться им так, так посчитаете позволительным и разумным. В свою очередь я всегда буду руководствоваться в выборе действий исключительно СВОИМИ приоритетами и аргументами, которые не стану ни с кем даже обсуждать. Ограничить меня в этом могут ТОЛЬКО Правила организации публикаций на ресурсе и больше ничто и никто.
Надеюсь, вопрос о формате этой раздачи исчерпан.
[Профиль]  [ЛС] 

Beaverage

Стаж: 12 лет 5 месяцев

Сообщений: 918


Beaverage · 19-Мар-14 12:07 (спустя 2 месяца 27 дней)

Цитата:
В случае отсутствия ЦАПа, поддерживающего такой режим, на выходе будет результат тройной конверсии плюс весьма вероятно ограничение глубины в 24 бит. Выиграет ли такой вариант прослушивания у регулярного 24-бит Qualité Studio Master - вопрос открытый...
у меня как раз такой вариант )) но и то было интересно посравнивать с кобузовской версией лоб в лоб, разница конечно существенная, и далеко не только в уровне громкости, которая у меня получилась почему-то децибел в 12-13, а не в 6 как ожидал ))) но вообще как будто микс другой, даже сложно формализовать в чем разница, все по другому звучит, глубина/ширина сцены разные и тд, тут еще какая-то неуловимая аналоговость звучания по сравнению с кобузом.. вобщем интересный опыт.. спасибо )))
[Профиль]  [ЛС] 

mickaniv

Стаж: 8 лет 2 месяца

Сообщений: 414

mickaniv · 21-Мар-15 20:06 (спустя 1 год)

Ни чё не понимаю? А есть ли здесь 32 бит, если железка Пионер 450 читает в легкую с винта ?
[Профиль]  [ЛС] 

Beaverage

Стаж: 12 лет 5 месяцев

Сообщений: 918


Beaverage · 21-Мар-15 21:42 (спустя 1 час 35 мин.)

mickaniv
тут же dsd, т е 1-битный поток, написано же
Цитата:
цифровой пре-мастер 32/44,1 (не публикуется)
[Профиль]  [ЛС] 

Aleks Barbarian

Стаж: 6 лет 1 месяц

Сообщений: 16

Aleks Barbarian · 08-Апр-16 14:42 (спустя 1 год)

Нет слов, просто о...уенно!
[Профиль]  [ЛС] 

micro-gear

Стаж: 2 года 11 месяцев

Сообщений: 3


micro-gear · 07-Апр-17 18:33 (спустя 11 месяцев)

божество (живой звук)
[Профиль]  [ЛС] 

cosolap

Стаж: 2 года 1 месяц

Сообщений: 17


cosolap · 22-Апр-19 21:21 (спустя 2 года)

нужно скачать -для эксперимента: услышу чё нибудь с компа "Foobar 2000" -на ЦАП "Cambridge Audio DacMagic Plus"?
[Профиль]  [ЛС] 

Ruslan Luken

Стаж: 8 лет 5 месяцев

Сообщений: 36


Ruslan Luken · 04-Июл-19 15:33 (спустя 2 месяца 11 дней)

Качну ! Не фанат Ванессы ! Но если говорят божество на да заслушать !
[Профиль]  [ЛС] 

strong1978

Стаж: 9 лет 7 месяцев

Сообщений: 23

strong1978 · 03-Авг-19 01:42 (спустя 29 дней, ред. 03-Авг-19 01:42)

я на высокой громкости с таким качеством посреди комнаты в кресле засыпаю.
Вопрос в спецам: как в машине такой звук запилить? Щас у меня Blaupunkt NX установлен.
[Профиль]  [ЛС] 
 
Ответить
Loading...
Error