Тенсегрити Карлоса Кастанеды: Колесо Времени [2014, Тенсегрити Карлоса Кастанеды, DVDRip, RUS] (Видеоурок)

Страницы:  1

Ответить
Автор
Сообщение

alegrias

Стаж: 12 лет 5 месяцев

Сообщений: 15


alegrias · 08-Апр-14 23:50 (5 лет 3 месяца назад, ред. 22-Апр-14 14:50)

Тенсегрити Карлоса Кастанеды: Колесо Времени
Страна: США-Украина-Россия
Тематика: Тенсегрити Карлоса Кастанеды
Тип раздаваемого материала: Видеоурок
Продолжительность: 00:04:30
Год выпуска: 2014
Язык: Русский
Перевод: Не требуется
Описание: Короткий ролик - демонстрация Формы "Колеса Времени".
Впервые за 14 лет был снят демонстрационный ролик с магическими пассами Карлоса Кастанеды.
Короткий ролик - демонстрация Формы Тенсегрити - "Колесо Времени".
Впервые за последние 14 лет снят официальный демонстрационный ролик с магическими пассами Карлоса Кастанеды, под руководством ученицы Карлоса Кастанеды – Ренаты Мюрез.
Ролик не создан с целью разучить эту форму, а скорее чтобы передать настроение магичесских пассов, ощутить Тишину, стоящую за ними, но если вы уже изучали эту форму на семинарах или в группах, то сможете вспомнить и отточить технику.
Движения Тенсегрити или магические пассы демонстрируют ведущие и практикующие Тенсегрити: Елена Точилина, Соломия Петрина и Сергей Кустов.
Качество: WEBRip
Формат: MP4
Видео: AVC, 1299.0kbps (16:9), 1280×720, 25.000fps,
Аудио: AAC, 192.0kbps, 44.1kHz 16bit, 2 каналов
MediaInfo
Общее
Полное имя : K:\Раздачи Видео\Magical Passes®- The Wheel of Time.mp4
Формат : MPEG-4
Профиль формата : Base Media / Version 2
Идентификатор кодека : mp42
Размер файла : 47,7 Мбайт
Продолжительность : 4 м. 28 с.
Режим общего битрейта : Переменный
Общий поток : 1494 Кбит/сек
Дата кодирования : UTC 2014-03-31 06:42:02
Дата пометки : UTC 2014-03-31 06:42:02
Видео
Идентификатор : 1
Формат : AVC
Формат/Информация : Advanced Video Codec
Профиль формата : High@L3.1
Параметр CABAC формата : Да
Параметр ReFrames формата : 1 кадр
Параметр GOP формата : M=1, N=60
Идентификатор кодека : avc1
Идентификатор кодека/Информация : Advanced Video Coding
Продолжительность : 4 м. 28 с.
Битрейт : 1299 Кбит/сек
Максимальный битрейт : 3318 Кбит/сек
Ширина : 1280 пикселей
Высота : 720 пикселей
Соотношение сторон : 16:9
Режим частоты кадров : Постоянный
Частота кадров : 25,000 кадров/сек
Цветовое пространство : YUV
Субдискретизация насыщенности : 4:2:0
Битовая глубина : 8 бит
Тип развёртки : Прогрессивная
Бит/(Пиксели*Кадры) : 0.056
Размер потока : 41,5 Мбайт (87%)
Дата пометки : UTC 2014-03-31 06:42:03
Аудио
Идентификатор : 2
Формат : AAC
Формат/Информация : Advanced Audio Codec
Профиль формата : LC
Идентификатор кодека : 40
Продолжительность : 4 м. 28 с.
Вид битрейта : Переменный
Битрейт : 192 Кбит/сек
Максимальный битрейт : 202 Кбит/сек
Каналы : 2 канала
Расположение каналов : Front: L R
Частота : 44,1 КГц
Метод сжатия : С потерями
Размер потока : 6,14 Мбайт (13%)
Заголовок : IsoMedia File Produced by Google, 5-11-2011
Дата кодирования : UTC 2014-03-31 06:42:03
Дата пометки : UTC 2014-03-31 06:42:03
Скриншоты
Download
Для скачивания .torrent файлов необходима регистрация
Сайт не распространяет и не хранит электронные версии произведений, а лишь предоставляет доступ к создаваемому пользователями каталогу ссылок на торрент-файлы, которые содержат только списки хеш-сумм
[Профиль]  [ЛС] 

Zhyvana

Moderator gray

Стаж: 8 лет 7 месяцев

Сообщений: 2459

Zhyvana · 09-Апр-14 10:48 (спустя 10 часов)

alegrias
- Уменьшите, пожалуйста, постер, он не должен быть больше, чем 500x600pixel:
? Недооформлено

[Профиль]  [ЛС] 

Zhyvana

Moderator gray

Стаж: 8 лет 7 месяцев

Сообщений: 2459

Zhyvana · 17-Апр-14 11:46 (спустя 8 дней)

Ваша раздача была перенесена в тестовый раздел!
Внимание! У вас есть 7 дней, чтобы исправить ошибки!

Об исправлении пришлите, пожалуйста, мне ЛС со ссылкой на раздачу
[Профиль]  [ЛС] 

ALT-000

Стаж: 11 лет 7 месяцев

Сообщений: 226


ALT-000 · 16-Окт-14 18:12 (спустя 5 месяцев)

Нету других современных видео, представленных на сайте?
[Профиль]  [ЛС] 
 
Ответить
Loading...
Error