(Vocal Jazz) [CD] Maya - Fanm Matinik Dou - 2009, FLAC (tracks+.cue), lossless

Страницы:  1

Ответить
Автор
Сообщение

Most1973

Стаж: 8 лет 2 месяца

Сообщений: 36


Most1973 · 31-Янв-15 00:08 (4 года 5 месяцев назад)

Maya / Fanm Matinik Dou
Жанр: Vocal Jazz
Носитель: CD
Страна-производитель диска (релиза): Japan
Год издания: 2009
Издатель (лейбл): Terasima Records
Номер по каталогу: TYR-1012
Страна исполнителя (группы): Japan
Аудиокодек: FLAC (*.flac)
Тип рипа: tracks+.cue
Битрейт аудио: lossless
Продолжительность: 00:47:35
Источник (релизер): рип с CD
Наличие сканов в содержимом раздачи: нет
Треклист:
01 Inamura Jean.flac
02 Besame Mucho.flac
03 Ser Y No Ser.flac
04 Abrazame.flac
05 Sabor A Mi.flac
06 Maria Cervantes.flac
07 La Cumparsita.flac
08 Meu Mundo Caiu.flac
09 Princesa Caballero.flac
10 Historia De Un Amor.flac
11 Fanm Matinik Dou
12 Tres Palabras.flac
Лог создания рипа
X Lossless Decoder version 20141129 (148.1)
XLD extraction logfile from 2015-01-26 00:51:35 +0300
MAYA / Fanm Matinik Dou
Used drive : HL-DT-ST DVDRW GX40N (revision RQ00)
Media type : Pressed CD
Ripper mode : XLD Secure Ripper
Disable audio cache : OK for the drive with a cache less than 1375KiB
Make use of C2 pointers : NO
Read offset correction : 6
Max retry count : 20
Gap status : Analyzed, Appended (except HTOA)
TOC of the extracted CD
Track | Start | Length | Start sector | End sector
---------------------------------------------------------
1 | 00:00:00 | 04:08:68 | 0 | 18667
2 | 04:08:68 | 05:25:72 | 18668 | 43114
3 | 09:34:65 | 03:25:17 | 43115 | 58506
4 | 13:00:07 | 04:17:55 | 58507 | 77836
5 | 17:17:62 | 03:43:04 | 77837 | 94565
6 | 21:00:66 | 04:53:37 | 94566 | 116577
7 | 25:54:28 | 03:10:54 | 116578 | 130881
8 | 29:05:07 | 03:20:44 | 130882 | 145925
9 | 32:25:51 | 03:55:00 | 145926 | 163550
10 | 36:20:51 | 03:19:37 | 163551 | 178512
11 | 39:40:13 | 03:32:58 | 178513 | 194470
12 | 43:12:71 | 04:22:43 | 194471 | 214163
AccurateRip Summary (DiscID: 0015ec6a-00ca3068-ad0b270c)
Track 01 : OK (v1+v2, confidence 8/8)
Track 02 : OK (v1+v2, confidence 8/8)
Track 03 : OK (v1+v2, confidence 8/8)
Track 04 : OK (v1+v2, confidence 8/8)
Track 05 : OK (v1+v2, confidence 8/8)
Track 06 : OK (v1+v2, confidence 8/8)
Track 07 : OK (v1+v2, confidence 8/8)
Track 08 : OK (v1+v2, confidence 8/8)
Track 09 : OK (v1+v2, confidence 8/8)
Track 10 : OK (v1+v2, confidence 8/8)
Track 11 : OK (v1+v2, confidence 8/8)
Track 12 : OK (v1+v2, confidence 8/8)
->All tracks accurately ripped.
All Tracks
Album gain : -7.90 dB
Peak : 1.000000
Statistics
Read error : 0
Jitter error (maybe fixed) : 0
Retry sector count : 0
Damaged sector count : 0
Track 01
Filename : /Users/mos/Music/Maya-Fanm Matinik Dou(2009)-FLAC/01 MAYA - Inamura Jean.flac
Pre-gap length : 00:02:00
Track gain : -9.04 dB
Peak : 1.000000
CRC32 hash (test run) : C702C2F5
CRC32 hash : C702C2F5
CRC32 hash (skip zero) : 20D97A57
AccurateRip v1 signature : ECB2B32B
AccurateRip v2 signature : 30580DA6
->Accurately ripped (v1+v2, confidence 3+5/8)
Statistics
Read error : 0
Jitter error (maybe fixed) : 0
Retry sector count : 0
Damaged sector count : 0
Track 02
Filename : /Users/mos/Music/Maya-Fanm Matinik Dou(2009)-FLAC/02 MAYA - Besame Mucho.flac
Pre-gap length : 00:02:50
Track gain : -5.93 dB
Peak : 1.000000
CRC32 hash (test run) : 7CA02A94
CRC32 hash : 7CA02A94
CRC32 hash (skip zero) : 5D547390
AccurateRip v1 signature : 86C81F81
AccurateRip v2 signature : 73CFC867
->Accurately ripped (v1+v2, confidence 3+5/8)
Statistics
Read error : 0
Jitter error (maybe fixed) : 0
Retry sector count : 0
Damaged sector count : 0
Track 03
Filename : /Users/mos/Music/Maya-Fanm Matinik Dou(2009)-FLAC/03 MAYA - Ser Y No Ser.flac
Pre-gap length : 00:02:50
Track gain : -8.36 dB
Peak : 1.000000
CRC32 hash (test run) : 4C2B0993
CRC32 hash : 4C2B0993
CRC32 hash (skip zero) : 81640CEF
AccurateRip v1 signature : FA47DC24
AccurateRip v2 signature : 12076346
->Accurately ripped (v1+v2, confidence 3+5/8)
Statistics
Read error : 0
Jitter error (maybe fixed) : 0
Retry sector count : 0
Damaged sector count : 0
Track 04
Filename : /Users/mos/Music/Maya-Fanm Matinik Dou(2009)-FLAC/04 MAYA - Abrazame.flac
Pre-gap length : 00:02:50
Track gain : -7.86 dB
Peak : 1.000000
CRC32 hash (test run) : E4765652
CRC32 hash : E4765652
CRC32 hash (skip zero) : 93CAF751
AccurateRip v1 signature : 2D87033B
AccurateRip v2 signature : A134D573
->Accurately ripped (v1+v2, confidence 3+5/8)
Statistics
Read error : 0
Jitter error (maybe fixed) : 0
Retry sector count : 0
Damaged sector count : 0
Track 05
Filename : /Users/mos/Music/Maya-Fanm Matinik Dou(2009)-FLAC/05 MAYA - Sabor A Mi.flac
Pre-gap length : 00:02:50
Track gain : -8.41 dB
Peak : 1.000000
CRC32 hash (test run) : D8607D33
CRC32 hash : D8607D33
CRC32 hash (skip zero) : D9AA6871
AccurateRip v1 signature : 9C222732
AccurateRip v2 signature : 3BE019C3
->Accurately ripped (v1+v2, confidence 3+5/8)
Statistics
Read error : 0
Jitter error (maybe fixed) : 0
Retry sector count : 0
Damaged sector count : 0
Track 06
Filename : /Users/mos/Music/Maya-Fanm Matinik Dou(2009)-FLAC/06 MAYA - Maria Cervantes.flac
Pre-gap length : 00:02:50
Track gain : -6.12 dB
Peak : 1.000000
CRC32 hash (test run) : 0626A6F1
CRC32 hash : 0626A6F1
CRC32 hash (skip zero) : CEEEEEE1
AccurateRip v1 signature : 63C4E51C
AccurateRip v2 signature : 0E3194CD
->Accurately ripped (v1+v2, confidence 3+5/8)
Statistics
Read error : 0
Jitter error (maybe fixed) : 0
Retry sector count : 0
Damaged sector count : 0
Track 07
Filename : /Users/mos/Music/Maya-Fanm Matinik Dou(2009)-FLAC/07 MAYA - La Cumparsita.flac
Pre-gap length : 00:03:00
Track gain : -7.71 dB
Peak : 1.000000
CRC32 hash (test run) : 231C8CD0
CRC32 hash : 231C8CD0
CRC32 hash (skip zero) : D01AB4FC
AccurateRip v1 signature : E14755E0
AccurateRip v2 signature : 5D59985D
->Accurately ripped (v1+v2, confidence 3+5/8)
Statistics
Read error : 0
Jitter error (maybe fixed) : 0
Retry sector count : 0
Damaged sector count : 0
Track 08
Filename : /Users/mos/Music/Maya-Fanm Matinik Dou(2009)-FLAC/08 MAYA - Meu Mundo Caiu.flac
Pre-gap length : 00:02:50
Track gain : -7.03 dB
Peak : 1.000000
CRC32 hash (test run) : 7DC88040
CRC32 hash : 7DC88040
CRC32 hash (skip zero) : 9A9E3CD3
AccurateRip v1 signature : B56E558B
AccurateRip v2 signature : 5BF3735B
->Accurately ripped (v1+v2, confidence 3+5/8)
Statistics
Read error : 0
Jitter error (maybe fixed) : 0
Retry sector count : 0
Damaged sector count : 0
Track 09
Filename : /Users/mos/Music/Maya-Fanm Matinik Dou(2009)-FLAC/09 MAYA - Princesa Caballero.flac
Pre-gap length : 00:02:50
Track gain : -7.36 dB
Peak : 1.000000
CRC32 hash (test run) : 436E4DE3
CRC32 hash : 436E4DE3
CRC32 hash (skip zero) : A5BE490E
AccurateRip v1 signature : 0899F61F
AccurateRip v2 signature : EFB19768
->Accurately ripped (v1+v2, confidence 3+5/8)
Statistics
Read error : 0
Jitter error (maybe fixed) : 0
Retry sector count : 0
Damaged sector count : 0
Track 10
Filename : /Users/mos/Music/Maya-Fanm Matinik Dou(2009)-FLAC/10 MAYA - Historia De Un Amor.flac
Pre-gap length : 00:02:50
Track gain : -7.63 dB
Peak : 1.000000
CRC32 hash (test run) : 358E6457
CRC32 hash : 358E6457
CRC32 hash (skip zero) : FABEA3D7
AccurateRip v1 signature : 371C2789
AccurateRip v2 signature : 25588660
->Accurately ripped (v1+v2, confidence 3+5/8)
Statistics
Read error : 0
Jitter error (maybe fixed) : 0
Retry sector count : 0
Damaged sector count : 0
Track 11
Filename : /Users/mos/Music/Maya-Fanm Matinik Dou(2009)-FLAC/11 MAYA - Fanm Matinik Dou.flac
Pre-gap length : 00:02:50
Track gain : -8.35 dB
Peak : 1.000000
CRC32 hash (test run) : F802B5BC
CRC32 hash : F802B5BC
CRC32 hash (skip zero) : BE79E312
AccurateRip v1 signature : 8DE20D16
AccurateRip v2 signature : 6E017D1A
->Accurately ripped (v1+v2, confidence 3+5/8)
Statistics
Read error : 0
Jitter error (maybe fixed) : 0
Retry sector count : 0
Damaged sector count : 0
Track 12
Filename : /Users/mos/Music/Maya-Fanm Matinik Dou(2009)-FLAC/12 MAYA - Tres Palabras.flac
Pre-gap length : 00:02:50
Track gain : -6.66 dB
Peak : 1.000000
CRC32 hash (test run) : 959027EC
CRC32 hash : 959027EC
CRC32 hash (skip zero) : 4BBBE98E
AccurateRip v1 signature : 3E799E56
AccurateRip v2 signature : 54041E47
->Accurately ripped (v1+v2, confidence 3+5/8)
Statistics
Read error : 0
Jitter error (maybe fixed) : 0
Retry sector count : 0
Damaged sector count : 0
No errors occurred
End of status report
Содержание индексной карты (.CUE)
TITLE "Fanm Matinik Dou"
PERFORMER "MAYA"
CATALOG 4988044613294
REM GENRE "Jazz"
REM DATE "2009"
REM DISCNUMBER 1
REM TOTALDISCS 1
REM DISCID AD0B270C
REM REPLAYGAIN_ALBUM_GAIN -7.90 dB
REM REPLAYGAIN_ALBUM_PEAK 1.000000
FILE "01 MAYA - Inamura Jean.flac" WAVE
TRACK 01 AUDIO
TITLE "Inamura Jean"
PERFORMER "MAYA"
ISRC JPB620900923
REM REPLAYGAIN_TRACK_GAIN -9.04 dB
REM REPLAYGAIN_TRACK_PEAK 1.000000
INDEX 01 00:00:00
TRACK 02 AUDIO
TITLE "Besame Mucho"
PERFORMER "MAYA"
ISRC JPB620900924
REM REPLAYGAIN_TRACK_GAIN -5.93 dB
REM REPLAYGAIN_TRACK_PEAK 1.000000
INDEX 00 04:06:18
FILE "02 MAYA - Besame Mucho.flac" WAVE
INDEX 01 00:00:00
TRACK 03 AUDIO
TITLE "Ser Y No Ser"
PERFORMER "MAYA"
ISRC JPB620900925
REM REPLAYGAIN_TRACK_GAIN -8.36 dB
REM REPLAYGAIN_TRACK_PEAK 1.000000
INDEX 00 05:23:22
FILE "03 MAYA - Ser Y No Ser.flac" WAVE
INDEX 01 00:00:00
TRACK 04 AUDIO
TITLE "Abrazame"
PERFORMER "MAYA"
ISRC JPB620900926
REM REPLAYGAIN_TRACK_GAIN -7.86 dB
REM REPLAYGAIN_TRACK_PEAK 1.000000
INDEX 00 03:22:42
FILE "04 MAYA - Abrazame.flac" WAVE
INDEX 01 00:00:00
TRACK 05 AUDIO
TITLE "Sabor A Mi"
PERFORMER "MAYA"
ISRC JPB620900927
REM REPLAYGAIN_TRACK_GAIN -8.41 dB
REM REPLAYGAIN_TRACK_PEAK 1.000000
INDEX 00 04:15:05
FILE "05 MAYA - Sabor A Mi.flac" WAVE
INDEX 01 00:00:00
TRACK 06 AUDIO
TITLE "Maria Cervantes"
PERFORMER "MAYA"
ISRC JPB620900928
REM REPLAYGAIN_TRACK_GAIN -6.12 dB
REM REPLAYGAIN_TRACK_PEAK 1.000000
INDEX 00 03:40:29
FILE "06 MAYA - Maria Cervantes.flac" WAVE
INDEX 01 00:00:00
TRACK 07 AUDIO
TITLE "La Cumparsita"
PERFORMER "MAYA"
ISRC JPB620900929
REM REPLAYGAIN_TRACK_GAIN -7.71 dB
REM REPLAYGAIN_TRACK_PEAK 1.000000
INDEX 00 04:50:37
FILE "07 MAYA - La Cumparsita.flac" WAVE
INDEX 01 00:00:00
TRACK 08 AUDIO
TITLE "Meu Mundo Caiu"
PERFORMER "MAYA"
ISRC JPB620900930
REM REPLAYGAIN_TRACK_GAIN -7.03 dB
REM REPLAYGAIN_TRACK_PEAK 1.000000
INDEX 00 03:08:04
FILE "08 MAYA - Meu Mundo Caiu.flac" WAVE
INDEX 01 00:00:00
TRACK 09 AUDIO
TITLE "Princesa Caballero"
PERFORMER "MAYA"
ISRC JPB620900931
REM REPLAYGAIN_TRACK_GAIN -7.36 dB
REM REPLAYGAIN_TRACK_PEAK 1.000000
INDEX 00 03:17:69
FILE "09 MAYA - Princesa Caballero.flac" WAVE
INDEX 01 00:00:00
TRACK 10 AUDIO
TITLE "Historia De Un Amor"
PERFORMER "MAYA"
ISRC JPB620900932
REM REPLAYGAIN_TRACK_GAIN -7.63 dB
REM REPLAYGAIN_TRACK_PEAK 1.000000
INDEX 00 03:52:25
FILE "10 MAYA - Historia De Un Amor.flac" WAVE
INDEX 01 00:00:00
TRACK 11 AUDIO
TITLE "Fanm Matinik Dou"
PERFORMER "MAYA"
ISRC JPB620900933
REM REPLAYGAIN_TRACK_GAIN -8.35 dB
REM REPLAYGAIN_TRACK_PEAK 1.000000
INDEX 00 03:16:62
FILE "11 MAYA - Fanm Matinik Dou.flac" WAVE
INDEX 01 00:00:00
TRACK 12 AUDIO
TITLE "Tres Palabras"
PERFORMER "MAYA"
ISRC JPB620900934
REM REPLAYGAIN_TRACK_GAIN -6.66 dB
REM REPLAYGAIN_TRACK_PEAK 1.000000
INDEX 00 03:30:08
FILE "12 MAYA - Tres Palabras.flac" WAVE
INDEX 01 00:00:00
Состав
Maya (vocal)
Akira Matsuo (drums)
Kenji Shimada (bass)
Yutaka Kobayashi (piano) on 3,4,5,8,10
Gen Okada (piano) on 1,2,6,7,9,11,12
Mitsuaki Uchida (trombone) on 3,5,8,10
Akira Sekine (guitar) on 1,9,11
Download
Для скачивания .torrent файлов необходима регистрация
Сайт не распространяет и не хранит электронные версии произведений, а лишь предоставляет доступ к создаваемому пользователями каталогу ссылок на торрент-файлы, которые содержат только списки хеш-сумм
[Профиль]  [ЛС] 
 
Ответить
Loading...
Error