(Vocal Jazz) [CD] Maya - Maya+Jazz - 2008, FLAC (tracks+.cue), lossless

Страницы:  1

Ответить
Автор
Сообщение

Most1973

Стаж: 8 лет 2 месяца

Сообщений: 36


Most1973 · 31-Янв-15 01:26 (4 года 5 месяцев назад)

Maya / Maya+Jazz
Жанр: Vocal Jazz
Носитель: CD
Страна-производитель диска (релиза): Japan
Год издания: 2008
Издатель (лейбл): Terasima Records
Номер по каталогу: TYR-1005
Страна исполнителя (группы): Japan
Аудиокодек: FLAC (*.flac)
Тип рипа: tracks+.cue
Битрейт аудио: lossless
Продолжительность: 00:48:41
Источник (релизер): рип с CD
Наличие сканов в содержимом раздачи: да
Треклист:
01 Take Me In Your Arms.flac
02 Black Coffee.flac
03 Ochi Chernie.flac
04 The Touch Of Your Lips.flac
05 Beautiful Love.flac
06 I'm A Fool To Care.flac
07 The Moon Was Yellow.flac
08 I Fall In Love Too Easily.flac
09 Let's Do It (Let's Fall In Love).flac
10 Honeysuckle Rose.flac
11 Dance Me To The End Of Love.flac
Лог создания рипа
X Lossless Decoder version 20141129 (148.1)
XLD extraction logfile from 2015-01-26 00:19:18 +0300
Maya / Maya + Jazz
Used drive : HL-DT-ST DVDRW GX40N (revision RQ00)
Media type : Pressed CD
Ripper mode : XLD Secure Ripper
Disable audio cache : OK for the drive with a cache less than 1375KiB
Make use of C2 pointers : NO
Read offset correction : 6
Max retry count : 20
Gap status : Analyzed, Appended (except HTOA)
TOC of the extracted CD
Track | Start | Length | Start sector | End sector
---------------------------------------------------------
1 | 00:00:00 | 04:39:00 | 0 | 20924
2 | 04:39:00 | 07:01:00 | 20925 | 52499
3 | 11:40:00 | 03:14:00 | 52500 | 67049
4 | 14:54:00 | 03:47:00 | 67050 | 84074
5 | 18:41:00 | 03:42:00 | 84075 | 100724
6 | 22:23:00 | 04:26:00 | 100725 | 120674
7 | 26:49:00 | 03:50:00 | 120675 | 137924
8 | 30:39:00 | 04:31:00 | 137925 | 158249
9 | 35:10:00 | 04:16:00 | 158250 | 177449
10 | 39:26:00 | 04:33:00 | 177450 | 197924
11 | 43:59:00 | 04:42:15 | 197925 | 219089
AccurateRip Summary (DiscID: 0014650e-00aea49e-7e0b690b)
Track 01 : OK (v1+v2, confidence 12/12)
Track 02 : OK (v1+v2, confidence 12/12)
Track 03 : OK (v1+v2, confidence 12/12)
Track 04 : OK (v1+v2, confidence 12/12)
Track 05 : OK (v1+v2, confidence 12/12)
Track 06 : OK (v1+v2, confidence 12/12)
Track 07 : OK (v1+v2, confidence 12/12)
Track 08 : OK (v1+v2, confidence 12/12)
Track 09 : OK (v1+v2, confidence 12/12)
Track 10 : OK (v1+v2, confidence 12/12)
Track 11 : OK (v1+v2, confidence 11/11)
->All tracks accurately ripped.
All Tracks
Album gain : -5.88 dB
Peak : 1.000000
Statistics
Read error : 0
Jitter error (maybe fixed) : 0
Retry sector count : 0
Damaged sector count : 0
Track 01
Filename : /Users/mos/Music/Maya-Maya+Jazz(2008)-FLAC/01 Maya - Take Me In Your Arms.flac
Pre-gap length : 00:02:00
Track gain : -5.08 dB
Peak : 1.000000
CRC32 hash (test run) : 1F664F09
CRC32 hash : 1F664F09
CRC32 hash (skip zero) : C2C39E8E
AccurateRip v1 signature : AC1DD4C7
AccurateRip v2 signature : F77960B1
->Accurately ripped (v1+v2, confidence 2+10/12)
Statistics
Read error : 0
Jitter error (maybe fixed) : 0
Retry sector count : 0
Damaged sector count : 0
Track 02
Filename : /Users/mos/Music/Maya-Maya+Jazz(2008)-FLAC/02 Maya - Black Coffee.flac
Pre-gap length : 00:03:45
Track gain : -6.51 dB
Peak : 1.000000
CRC32 hash (test run) : 7C702251
CRC32 hash : 7C702251
CRC32 hash (skip zero) : 4D498412
AccurateRip v1 signature : 8F92A15A
AccurateRip v2 signature : A38E6F97
->Accurately ripped (v1+v2, confidence 2+10/12)
Statistics
Read error : 0
Jitter error (maybe fixed) : 0
Retry sector count : 0
Damaged sector count : 0
Track 03
Filename : /Users/mos/Music/Maya-Maya+Jazz(2008)-FLAC/03 Maya - Ochi Chernie.flac
Pre-gap length : 00:03:45
Track gain : -6.96 dB
Peak : 1.000000
CRC32 hash (test run) : D09D8E52
CRC32 hash : D09D8E52
CRC32 hash (skip zero) : 873E29C7
AccurateRip v1 signature : AB90E4C4
AccurateRip v2 signature : 8C10EFB3
->Accurately ripped (v1+v2, confidence 2+10/12)
Statistics
Read error : 0
Jitter error (maybe fixed) : 0
Retry sector count : 0
Damaged sector count : 0
Track 04
Filename : /Users/mos/Music/Maya-Maya+Jazz(2008)-FLAC/04 Maya - The Touch Of Your Lips.flac
Pre-gap length : 00:03:45
Track gain : -4.58 dB
Peak : 1.000000
CRC32 hash (test run) : B4FD7438
CRC32 hash : B4FD7438
CRC32 hash (skip zero) : 0AC0EFC2
AccurateRip v1 signature : 3E90D498
AccurateRip v2 signature : 54CD4A04
->Accurately ripped (v1+v2, confidence 2+10/12)
Statistics
Read error : 0
Jitter error (maybe fixed) : 0
Retry sector count : 0
Damaged sector count : 0
Track 05
Filename : /Users/mos/Music/Maya-Maya+Jazz(2008)-FLAC/05 Maya - Beautiful Love.flac
Pre-gap length : 00:03:45
Track gain : -6.09 dB
Peak : 1.000000
CRC32 hash (test run) : C71C79B8
CRC32 hash : C71C79B8
CRC32 hash (skip zero) : 803DAE71
AccurateRip v1 signature : 5F69167B
AccurateRip v2 signature : 1DB4DEA1
->Accurately ripped (v1+v2, confidence 2+10/12)
Statistics
Read error : 0
Jitter error (maybe fixed) : 0
Retry sector count : 0
Damaged sector count : 0
Track 06
Filename : /Users/mos/Music/Maya-Maya+Jazz(2008)-FLAC/06 Maya - I'm A Fool To Care.flac
Pre-gap length : 00:03:45
Track gain : -5.39 dB
Peak : 1.000000
CRC32 hash (test run) : D6D859C0
CRC32 hash : D6D859C0
CRC32 hash (skip zero) : 22D90A93
AccurateRip v1 signature : 74141836
AccurateRip v2 signature : A63BF6F6
->Accurately ripped (v1+v2, confidence 2+10/12)
Statistics
Read error : 0
Jitter error (maybe fixed) : 0
Retry sector count : 0
Damaged sector count : 0
Track 07
Filename : /Users/mos/Music/Maya-Maya+Jazz(2008)-FLAC/07 Maya - The Moon Was Yellow.flac
Pre-gap length : 00:03:45
Track gain : -6.08 dB
Peak : 1.000000
CRC32 hash (test run) : E79B8996
CRC32 hash : E79B8996
CRC32 hash (skip zero) : 042DEF98
AccurateRip v1 signature : B96142D0
AccurateRip v2 signature : 9EC5581B
->Accurately ripped (v1+v2, confidence 2+10/12)
Statistics
Read error : 0
Jitter error (maybe fixed) : 0
Retry sector count : 0
Damaged sector count : 0
Track 08
Filename : /Users/mos/Music/Maya-Maya+Jazz(2008)-FLAC/08 Maya - I Fall In Love Too Easily.flac
Pre-gap length : 00:03:45
Track gain : -5.53 dB
Peak : 1.000000
CRC32 hash (test run) : EB96DDDA
CRC32 hash : EB96DDDA
CRC32 hash (skip zero) : 53185E52
AccurateRip v1 signature : 2F5397A5
AccurateRip v2 signature : 1B840542
->Accurately ripped (v1+v2, confidence 2+10/12)
Statistics
Read error : 0
Jitter error (maybe fixed) : 0
Retry sector count : 0
Damaged sector count : 0
Track 09
Filename : /Users/mos/Music/Maya-Maya+Jazz(2008)-FLAC/09 Maya - Let's Do It (Let's Fall In Love).flac
Pre-gap length : 00:03:45
Track gain : -4.45 dB
Peak : 1.000000
CRC32 hash (test run) : 07D40179
CRC32 hash : 07D40179
CRC32 hash (skip zero) : 7B34D366
AccurateRip v1 signature : B5742BE9
AccurateRip v2 signature : 3F69FEC1
->Accurately ripped (v1+v2, confidence 2+10/12)
Statistics
Read error : 0
Jitter error (maybe fixed) : 0
Retry sector count : 0
Damaged sector count : 0
Track 10
Filename : /Users/mos/Music/Maya-Maya+Jazz(2008)-FLAC/10 Maya - Honeysuckle Rose.flac
Pre-gap length : 00:03:45
Track gain : -5.97 dB
Peak : 1.000000
CRC32 hash (test run) : 98272DEA
CRC32 hash : 98272DEA
CRC32 hash (skip zero) : 6A8DD8CE
AccurateRip v1 signature : FD330D97
AccurateRip v2 signature : 4BD9467E
->Accurately ripped (v1+v2, confidence 2+10/12)
Statistics
Read error : 0
Jitter error (maybe fixed) : 0
Retry sector count : 0
Damaged sector count : 0
Track 11
Filename : /Users/mos/Music/Maya-Maya+Jazz(2008)-FLAC/11 Maya - Dance Me To The End Of Love.flac
Pre-gap length : 00:03:45
Track gain : -5.71 dB
Peak : 1.000000
CRC32 hash (test run) : 0AAF6245
CRC32 hash : 0AAF6245
CRC32 hash (skip zero) : 56C698DF
AccurateRip v1 signature : 425C650B
AccurateRip v2 signature : 41423D62
->Accurately ripped (v1+v2, confidence 2+9/11)
Statistics
Read error : 0
Jitter error (maybe fixed) : 0
Retry sector count : 0
Damaged sector count : 0
No errors occurred
End of status report
Содержание индексной карты (.CUE)
TITLE "Maya + Jazz"
PERFORMER "Maya"
REM GENRE "Rock"
REM DATE "2008"
REM DISCNUMBER 1
REM TOTALDISCS 1
REM DISCID 7E0B690B
REM REPLAYGAIN_ALBUM_GAIN -5.88 dB
REM REPLAYGAIN_ALBUM_PEAK 1.000000
FILE "01 Maya - Take Me In Your Arms.flac" WAVE
TRACK 01 AUDIO
TITLE "Take Me In Your Arms"
PERFORMER "Maya"
REM REPLAYGAIN_TRACK_GAIN -5.08 dB
REM REPLAYGAIN_TRACK_PEAK 1.000000
INDEX 01 00:00:00
TRACK 02 AUDIO
TITLE "Black Coffee"
PERFORMER "Maya"
REM REPLAYGAIN_TRACK_GAIN -6.51 dB
REM REPLAYGAIN_TRACK_PEAK 1.000000
INDEX 00 04:35:30
FILE "02 Maya - Black Coffee.flac" WAVE
INDEX 01 00:00:00
TRACK 03 AUDIO
TITLE "Ochi Chernie"
PERFORMER "Maya"
REM REPLAYGAIN_TRACK_GAIN -6.96 dB
REM REPLAYGAIN_TRACK_PEAK 1.000000
INDEX 00 06:57:30
FILE "03 Maya - Ochi Chernie.flac" WAVE
INDEX 01 00:00:00
TRACK 04 AUDIO
TITLE "The Touch Of Your Lips"
PERFORMER "Maya"
REM REPLAYGAIN_TRACK_GAIN -4.58 dB
REM REPLAYGAIN_TRACK_PEAK 1.000000
INDEX 00 03:10:30
FILE "04 Maya - The Touch Of Your Lips.flac" WAVE
INDEX 01 00:00:00
TRACK 05 AUDIO
TITLE "Beautiful Love"
PERFORMER "Maya"
REM REPLAYGAIN_TRACK_GAIN -6.09 dB
REM REPLAYGAIN_TRACK_PEAK 1.000000
INDEX 00 03:43:30
FILE "05 Maya - Beautiful Love.flac" WAVE
INDEX 01 00:00:00
TRACK 06 AUDIO
TITLE "I'm A Fool To Care"
PERFORMER "Maya"
REM REPLAYGAIN_TRACK_GAIN -5.39 dB
REM REPLAYGAIN_TRACK_PEAK 1.000000
INDEX 00 03:38:30
FILE "06 Maya - I'm A Fool To Care.flac" WAVE
INDEX 01 00:00:00
TRACK 07 AUDIO
TITLE "The Moon Was Yellow"
PERFORMER "Maya"
REM REPLAYGAIN_TRACK_GAIN -6.08 dB
REM REPLAYGAIN_TRACK_PEAK 1.000000
INDEX 00 04:22:30
FILE "07 Maya - The Moon Was Yellow.flac" WAVE
INDEX 01 00:00:00
TRACK 08 AUDIO
TITLE "I Fall In Love Too Easily"
PERFORMER "Maya"
REM REPLAYGAIN_TRACK_GAIN -5.53 dB
REM REPLAYGAIN_TRACK_PEAK 1.000000
INDEX 00 03:46:30
FILE "08 Maya - I Fall In Love Too Easily.flac" WAVE
INDEX 01 00:00:00
TRACK 09 AUDIO
TITLE "Let's Do It (Let's Fall In Love)"
PERFORMER "Maya"
REM REPLAYGAIN_TRACK_GAIN -4.45 dB
REM REPLAYGAIN_TRACK_PEAK 1.000000
INDEX 00 04:27:30
FILE "09 Maya - Let's Do It (Let's Fall In Love).flac" WAVE
INDEX 01 00:00:00
TRACK 10 AUDIO
TITLE "Honeysuckle Rose"
PERFORMER "Maya"
REM REPLAYGAIN_TRACK_GAIN -5.97 dB
REM REPLAYGAIN_TRACK_PEAK 1.000000
INDEX 00 04:12:30
FILE "10 Maya - Honeysuckle Rose.flac" WAVE
INDEX 01 00:00:00
TRACK 11 AUDIO
TITLE "Dance Me To The End Of Love"
PERFORMER "Maya"
REM REPLAYGAIN_TRACK_GAIN -5.71 dB
REM REPLAYGAIN_TRACK_PEAK 1.000000
INDEX 00 04:29:30
FILE "11 Maya - Dance Me To The End Of Love.flac" WAVE
INDEX 01 00:00:00
Состав
Maya (vocal)
Akira Matsuo (drums)
Kenji Shimada (bass)
Yoko Teramura (piano) on 2,3,6,7,8
Kenichi Shimazu (piano) on 1,4,5,9,10,11
Yasuhiro Takahashi (tenor sax) on 2,6
Download
Для скачивания .torrent файлов необходима регистрация
Сайт не распространяет и не хранит электронные версии произведений, а лишь предоставляет доступ к создаваемому пользователями каталогу ссылок на торрент-файлы, которые содержат только списки хеш-сумм
[Профиль]  [ЛС] 
 
Ответить
Loading...
Error