(Vocal Jazz) [CD] Maya - Once Upon A Time - 2009, FLAC (image+.cue), lossless

Страницы:  1

Ответить
Автор
Сообщение

Most1973

Стаж: 8 лет 2 месяца

Сообщений: 36


Most1973 · 22-Фев-15 23:33 (4 года 4 месяца назад)

Maya / Once Upon A Time
Жанр: Vocal Jazz
Носитель: CD
Страна-производитель диска (релиза): Japan
Год издания: 2009
Издатель (лейбл): Bar Bar Bar Records
Номер по каталогу: YBBB1001
Страна исполнителя (группы): Japan
Аудиокодек: FLAC (*.flac)
Тип рипа: image+.cue
Битрейт аудио: lossless
Продолжительность: 00:45:59
Источник (релизер): рип с CD
Наличие сканов в содержимом раздачи: да
Треклист:
01 Temptation
02 Don't Let Me Be Misunderstood
03 Antonio's Song
04 Time Of The Season
05 Amapola (piano solo)
06 Adoro
07 Our Love Is Here To Stay
08 Manha de Carnaval
09 All Of Me
10 Blue Monk
Лог создания рипа
X Lossless Decoder version 20141129 (148.1)
XLD extraction logfile from 2015-02-15 17:54:39 +0300
Maya / Once Upon A Time
Used drive : HL-DT-ST DVDRW GX40N (revision RQ00)
Media type : Pressed CD
Ripper mode : XLD Secure Ripper
Disable audio cache : OK for the drive with a cache less than 1375KiB
Make use of C2 pointers : NO
Read offset correction : 6
Max retry count : 20
Gap status : Analyzed, Appended (except HTOA)
TOC of the extracted CD
Track | Start | Length | Start sector | End sector
---------------------------------------------------------
1 | 00:00:00 | 03:44:45 | 0 | 16844
2 | 03:44:45 | 03:25:11 | 16845 | 32230
3 | 07:09:56 | 04:45:46 | 32231 | 53651
4 | 11:55:27 | 03:07:56 | 53652 | 67732
5 | 15:03:08 | 05:40:32 | 67733 | 93264
6 | 20:43:40 | 05:52:23 | 93265 | 119687
7 | 26:35:63 | 04:39:45 | 119688 | 140657
8 | 31:15:33 | 04:38:14 | 140658 | 161521
9 | 35:53:47 | 05:35:55 | 161522 | 186701
10 | 41:29:27 | 04:19:32 | 186702 | 206158
AccurateRip Summary (DiscID: 001074b7-008632aa-870abc0a)
Track 01 : OK (v2, confidence 3/3)
Track 02 : OK (v2, confidence 3/3)
Track 03 : OK (v2, confidence 3/3)
Track 04 : OK (v2, confidence 3/3)
Track 05 : OK (v2, confidence 3/3)
Track 06 : OK (v2, confidence 3/3)
Track 07 : OK (v2, confidence 3/3)
Track 08 : OK (v2, confidence 3/3)
Track 09 : OK (v2, confidence 3/3)
Track 10 : OK (v2, confidence 3/3)
->All tracks accurately ripped.
All Tracks
Album gain : -8.96 dB
Peak : 1.000000
Statistics
Read error : 0
Jitter error (maybe fixed) : 0
Retry sector count : 0
Damaged sector count : 0
Track 01
Filename : /Users/mos/Music/Maya-Once Upon A Time(2009)-FLAC/01 Temptation.flac
Pre-gap length : 00:02:00
Track gain : -8.38 dB
Peak : 1.000000
CRC32 hash (test run) : DC681271
CRC32 hash : DC681271
CRC32 hash (skip zero) : 88D4DC63
AccurateRip v1 signature : D6918798
AccurateRip v2 signature : 7FDB477E
->Accurately ripped (v2, confidence 3/3)
Statistics
Read error : 0
Jitter error (maybe fixed) : 0
Retry sector count : 0
Damaged sector count : 0
Track 02
Filename : /Users/mos/Music/Maya-Once Upon A Time(2009)-FLAC/02 Don't Let Me Be Misunderstood.flac
Pre-gap length : 00:02:50
Track gain : -8.57 dB
Peak : 1.000000
CRC32 hash (test run) : 0115CB30
CRC32 hash : 0115CB30
CRC32 hash (skip zero) : BAAA7DF8
AccurateRip v1 signature : 7A3CFF72
AccurateRip v2 signature : 0B3EBE0D
->Accurately ripped (v2, confidence 3/3)
Statistics
Read error : 0
Jitter error (maybe fixed) : 0
Retry sector count : 0
Damaged sector count : 0
Track 03
Filename : /Users/mos/Music/Maya-Once Upon A Time(2009)-FLAC/03 Antonio's Song.flac
Pre-gap length : 00:02:50
Track gain : -7.99 dB
Peak : 1.000000
CRC32 hash (test run) : DE6FD32F
CRC32 hash : DE6FD32F
CRC32 hash (skip zero) : 3B178F04
AccurateRip v1 signature : CAFECF0A
AccurateRip v2 signature : EA79BF01
->Accurately ripped (v2, confidence 3/3)
Statistics
Read error : 0
Jitter error (maybe fixed) : 0
Retry sector count : 0
Damaged sector count : 0
Track 04
Filename : /Users/mos/Music/Maya-Once Upon A Time(2009)-FLAC/04 Time Of The Season.flac
Pre-gap length : 00:02:50
Track gain : -9.00 dB
Peak : 1.000000
CRC32 hash (test run) : A2682375
CRC32 hash : A2682375
CRC32 hash (skip zero) : 9CEFB93C
AccurateRip v1 signature : BE9DC86B
AccurateRip v2 signature : 5B4BC4FB
->Accurately ripped (v2, confidence 3/3)
Statistics
Read error : 0
Jitter error (maybe fixed) : 0
Retry sector count : 0
Damaged sector count : 0
Track 05
Filename : /Users/mos/Music/Maya-Once Upon A Time(2009)-FLAC/05 Amapola (piano solo).flac
Pre-gap length : 00:02:50
Track gain : -8.43 dB
Peak : 0.999664
CRC32 hash (test run) : 65ABD97B
CRC32 hash : 65ABD97B
CRC32 hash (skip zero) : 0D6D423A
AccurateRip v1 signature : E5912ABF
AccurateRip v2 signature : 1AC83778
->Accurately ripped (v2, confidence 3/3)
Statistics
Read error : 0
Jitter error (maybe fixed) : 0
Retry sector count : 0
Damaged sector count : 0
Track 06
Filename : /Users/mos/Music/Maya-Once Upon A Time(2009)-FLAC/06 Adoro.flac
Pre-gap length : 00:02:50
Track gain : -9.32 dB
Peak : 1.000000
CRC32 hash (test run) : D4CB8A35
CRC32 hash : D4CB8A35
CRC32 hash (skip zero) : BFACC910
AccurateRip v1 signature : EF037EA7
AccurateRip v2 signature : 8C7816A1
->Accurately ripped (v2, confidence 3/3)
Statistics
Read error : 0
Jitter error (maybe fixed) : 0
Retry sector count : 0
Damaged sector count : 0
Track 07
Filename : /Users/mos/Music/Maya-Once Upon A Time(2009)-FLAC/07 Our Love Is Here To Stay.flac
Pre-gap length : 00:02:50
Track gain : -7.42 dB
Peak : 1.000000
CRC32 hash (test run) : ED0EA210
CRC32 hash : ED0EA210
CRC32 hash (skip zero) : F6ED5DDE
AccurateRip v1 signature : 66E4BA12
AccurateRip v2 signature : 6FBC155F
->Accurately ripped (v2, confidence 3/3)
Statistics
Read error : 0
Jitter error (maybe fixed) : 0
Retry sector count : 0
Damaged sector count : 0
Track 08
Filename : /Users/mos/Music/Maya-Once Upon A Time(2009)-FLAC/08 Manha de Carnaval.flac
Pre-gap length : 00:02:50
Track gain : -9.93 dB
Peak : 1.000000
CRC32 hash (test run) : 66AE851F
CRC32 hash : 66AE851F
CRC32 hash (skip zero) : 918BBCFA
AccurateRip v1 signature : 5064CD59
AccurateRip v2 signature : C5698D71
->Accurately ripped (v2, confidence 3/3)
Statistics
Read error : 0
Jitter error (maybe fixed) : 0
Retry sector count : 0
Damaged sector count : 0
Track 09
Filename : /Users/mos/Music/Maya-Once Upon A Time(2009)-FLAC/09 All Of Me.flac
Pre-gap length : 00:02:50
Track gain : -8.38 dB
Peak : 1.000000
CRC32 hash (test run) : 7294272A
CRC32 hash : 7294272A
CRC32 hash (skip zero) : DF18CD19
AccurateRip v1 signature : 0426FB76
AccurateRip v2 signature : 93E8A4B7
->Accurately ripped (v2, confidence 3/3)
Statistics
Read error : 0
Jitter error (maybe fixed) : 0
Retry sector count : 0
Damaged sector count : 0
Track 10
Filename : /Users/mos/Music/Maya-Once Upon A Time(2009)-FLAC/10 Blue Monk.flac
Pre-gap length : 00:02:50
Track gain : -9.71 dB
Peak : 1.000000
CRC32 hash (test run) : 7FA2E9EB
CRC32 hash : 7FA2E9EB
CRC32 hash (skip zero) : AEC6B2F2
AccurateRip v1 signature : ED71092A
AccurateRip v2 signature : AAFBB1D1
->Accurately ripped (v2, confidence 3/3)
Statistics
Read error : 0
Jitter error (maybe fixed) : 0
Retry sector count : 0
Damaged sector count : 0
No errors occurred
End of status report
Содержание индексной карты (.CUE)
TITLE "Once Upon A Time"
PERFORMER "Maya"
REM GENRE "Jazz"
REM DATE "2009"
REM DISCNUMBER 1
REM TOTALDISCS 1
REM DISCID 870ABC0A
REM REPLAYGAIN_ALBUM_GAIN -8.96 dB
REM REPLAYGAIN_ALBUM_PEAK 1.000000
FILE "01 Temptation.flac" WAVE
TRACK 01 AUDIO
TITLE "Temptation"
PERFORMER "Maya"
ISRC JPB620901109
REM REPLAYGAIN_TRACK_GAIN -8.38 dB
REM REPLAYGAIN_TRACK_PEAK 1.000000
INDEX 01 00:00:00
TRACK 02 AUDIO
TITLE "Don't Let Me Be Misunderstood"
PERFORMER "Maya"
ISRC JPB620901110
REM REPLAYGAIN_TRACK_GAIN -8.57 dB
REM REPLAYGAIN_TRACK_PEAK 1.000000
INDEX 00 03:41:70
FILE "02 Don't Let Me Be Misunderstood.flac" WAVE
INDEX 01 00:00:00
TRACK 03 AUDIO
TITLE "Antonio's Song"
PERFORMER "Maya"
ISRC JPB620901111
REM REPLAYGAIN_TRACK_GAIN -7.99 dB
REM REPLAYGAIN_TRACK_PEAK 1.000000
INDEX 00 03:22:36
FILE "03 Antonio's Song.flac" WAVE
INDEX 01 00:00:00
TRACK 04 AUDIO
TITLE "Time Of The Season"
PERFORMER "Maya"
ISRC JPB620901112
REM REPLAYGAIN_TRACK_GAIN -9.00 dB
REM REPLAYGAIN_TRACK_PEAK 1.000000
INDEX 00 04:42:71
FILE "04 Time Of The Season.flac" WAVE
INDEX 01 00:00:00
TRACK 05 AUDIO
TITLE "Amapola (piano solo)"
PERFORMER "Maya"
ISRC JPB620901113
REM REPLAYGAIN_TRACK_GAIN -8.43 dB
REM REPLAYGAIN_TRACK_PEAK 0.999664
INDEX 00 03:05:06
FILE "05 Amapola (piano solo).flac" WAVE
INDEX 01 00:00:00
TRACK 06 AUDIO
TITLE "Adoro"
PERFORMER "Maya"
REM REPLAYGAIN_TRACK_GAIN -9.32 dB
REM REPLAYGAIN_TRACK_PEAK 1.000000
INDEX 00 05:37:57
FILE "06 Adoro.flac" WAVE
INDEX 01 00:00:00
TRACK 07 AUDIO
TITLE "Our Love Is Here To Stay"
PERFORMER "Maya"
ISRC JPB620901114
REM REPLAYGAIN_TRACK_GAIN -7.42 dB
REM REPLAYGAIN_TRACK_PEAK 1.000000
INDEX 00 05:49:48
FILE "07 Our Love Is Here To Stay.flac" WAVE
INDEX 01 00:00:00
TRACK 08 AUDIO
TITLE "Manha de Carnaval"
PERFORMER "Maya"
ISRC JPB620901115
REM REPLAYGAIN_TRACK_GAIN -9.93 dB
REM REPLAYGAIN_TRACK_PEAK 1.000000
INDEX 00 04:36:70
FILE "08 Manha de Carnaval.flac" WAVE
INDEX 01 00:00:00
TRACK 09 AUDIO
TITLE "All Of Me"
PERFORMER "Maya"
ISRC JPB620901116
REM REPLAYGAIN_TRACK_GAIN -8.38 dB
REM REPLAYGAIN_TRACK_PEAK 1.000000
INDEX 00 04:35:39
FILE "09 All Of Me.flac" WAVE
INDEX 01 00:00:00
TRACK 10 AUDIO
TITLE "Blue Monk"
PERFORMER "Maya"
ISRC JPB620901117
REM REPLAYGAIN_TRACK_GAIN -9.71 dB
REM REPLAYGAIN_TRACK_PEAK 1.000000
INDEX 00 05:33:05
FILE "10 Blue Monk.flac" WAVE
INDEX 01 00:00:00
Download
Для скачивания .torrent файлов необходима регистрация
Сайт не распространяет и не хранит электронные версии произведений, а лишь предоставляет доступ к создаваемому пользователями каталогу ссылок на торрент-файлы, которые содержат только списки хеш-сумм
[Профиль]  [ЛС] 
 
Ответить
Loading...
Error