Чёрная магия 2 / Месть зомби / Gou hun jiang tou / Black Magic 2 / Ngau wan gong tau / Revenge of the Zombies (Менг Хуа Хо / Meng Hua Ho) [1976, Гонконг, Сингапур, ужасы, мистика, DVD9 (Custom)] Sub Rus

Страницы:  1
Ответить
Автор
Сообщение

Lucian666

Стаж: 11 лет 8 месяцев

Сообщений: 2875

Lucian666 · 18-Мар-15 12:58 (4 года 5 месяцев назад, ред. 18-Мар-15 13:00)

Чёрная магия 2 / Месть зомби / Gou hun jiang tou / Black Magic 2 / Ngau wan gong tau / Revenge of the Zombies / Bewitch Tame Head / Black Magic II /
Black Magic Part 2

Страна: Гонконг, Сингапур
Студия: Shaw Brothers
Жанр: ужасы, мистика
Год выпуска: 1976
Продолжительность: 01:31:51
Перевод: Субтитры e-ball
Субтитры: русские
Оригинальная аудиодорожка: китайский
Режиссер: Менг Хуа Хо / Meng Hua Ho
В ролях: Лунг Ти, Ни Тьен, Терри Лью, Хунг Вей, Лье Ло, Вей Ту Лин
Описание: Врачи заметили, что с пациентами происходит нечто сверхъестественное, они превращаются в зомби с шипами голове, а когда их удаляют, пациентов тошнит червями, они воспламеняются и взрываются. В ответе за все происходящее один ведьмак, но никто из врачей не верит этому. Кто-то должен пойти туда, остановить его и доказать, кто вызвал все эти кровавые причуды..
Доп. информация: При пересборе двд были использованы программы:
PgcDemux - разделение компонентов диска на файлы
Muxman - мультиплексирование и авторинг DVD
VobBlanker - реавторинг DVD
Скрин завершения проекта
Бонусы: Альтернативные сцены, трейлеры. галерея.
Сэмпл: http://sendfile.su/1097479
Тип релиза: DVD9 (Custom)
Контейнер: DVD-Video
Видео: NTSC 16:9 (720x480) VBR Auto Pan&Scan
Аудио: English (Dolby AC3, 192 Кбит/сек, 2 ch)
Аудио 2: Chinese (Dolby AC3, 192 Кбит/сек, 2 ch)
Формат субтитров: softsub (SRT)
DVDInfo
Size: 6.14 Gb ( 6 435 040 KBytes ) - DVD-9
Enabled regions: 1, 2, 3, 4, 5, 6, 7, 8
VTS_01 :
Play Length:
Video: NTSC 4:3 (720x480) VBR
VTS_02 :
Play Length: 00:03:25
Video: NTSC 16:9 (720x480) VBR, Auto Pan&Scan
Audio:
Chinese (Dolby AC3, 2 ch)
VTS_03 :
Play Length: 00:02:21
Video: NTSC 16:9 (720x480) VBR, Auto Pan&Scan
Audio:
Chinese (Dolby AC3, 2 ch)
VTS_04 :
Play Length: 00:01:28
Video: NTSC 4:3 (720x480) VBR
Audio:
Chinese (Dolby AC3, 2 ch)
VTS_05 :
Play Length: 00:01:59
Video: NTSC 4:3 (720x480) VBR
Audio:
Chinese (Dolby AC3, 2 ch)
VTS_06 :
Play Length: 00:00:37
Video: NTSC 16:9 (720x480) VBR, Auto Pan&Scan
Audio:
Chinese (Dolby AC3, 2 ch)
VTS_07 :
Play Length: 00:02:43
Video: NTSC 16:9 (720x480) VBR, Auto Pan&Scan
Audio:
Chinese (Dolby AC3, 2 ch)
VTS_08 :
Play Length: 00:01:02
Video: NTSC 4:3 (720x480) VBR
Audio:
Chinese (Dolby AC3, 2 ch)
VTS_09 :
Play Length: 00:03:25
Video: NTSC 16:9 (720x480) VBR, Auto Pan&Scan
Audio:
Chinese (Dolby AC3, 2 ch)
VTS_10 :
Play Length: 00:02:43
Video: NTSC 16:9 (720x480) VBR, Auto Pan&Scan
Audio:
Chinese (Dolby AC3, 2 ch)
VTS_11 :
Play Length: 01:31:51
Video: NTSC 16:9 (720x480) VBR, Auto Pan&Scan
Audio:
English (Dolby AC3, 2 ch)
Thai (Dolby AC3, 2 ch)
Subtitles:
Russian
English
English
VTS_12 :
Play Length: 00:01:01
Video: NTSC 16:9 (720x480) VBR, Auto Pan&Scan
Audio:
Chinese (Dolby AC3, 2 ch)
VTS_13 :
Play Length: 00:00:15
Video: NTSC 16:9 (720x480) VBR, Auto Pan&Scan
Audio:
Not specified (Dolby AC3, 2 ch)
VTS_14 :
Play Length: 00:00:06
Video: NTSC 16:9 (720x480) VBR, Auto Pan&Scan
Audio:
Not specified (Dolby AC3, 2 ch)
VTS_15 :
Play Length: 00:01:40
Video: NTSC 16:9 (720x480) VBR, Auto Pan&Scan
VTS_16 :
Play Length: 00:00:20
Video: NTSC 16:9 (720x480) VBR, Auto Pan&Scan
Menu Video:
NTSC 16:9 (720x480) VBR
Auto Pan&Scan
Menu English Language Unit :
Root Menu
MediaInfo
Общее
Полное имя : M:\Black Magic 2_1976\VIDEO_TS\VTS_11_1.VOB
Формат : MPEG-PS
Размер файла : 1024 Мбайт
Продолжительность : 17 м.
Режим общего битрейта : Переменный
Общий поток : 8180 Кбит/сек
Видео
Идентификатор : 224 (0xE0)
Формат : MPEG Video
Версия формата : Version 2
Профиль формата : Main@Main
Параметр BVOP формата : Да
Параметр матрицы формата : По умолчанию
Параметр GOP формата : M=3, N=13
Продолжительность : 17 м.
Вид битрейта : Переменный
Битрейт : 7633 Кбит/сек
Максимальный битрейт : 9000 Кбит/сек
Ширина : 720 пикселей
Высота : 480 пикселей
Соотношение сторон : 2,40:1
Частота кадров : 23,976 кадра/сек
Стандарт вещания : NTSC
Цветовое пространство : YUV
Субдискретизация насыщенности : 4:2:0
Битовая глубина : 8 бит
Тип развёртки : Прогрессивная
Порядок развёртки : 2:3 Pulldown
Метод сжатия : С потерями
Бит/(Пиксели*Кадры) : 0.921
Размер потока : 956 Мбайт (93%)
Основные цвета : BT.601 NTSC
Характеристики трансфера : BT.601
Коэффициенты матрицы : BT.601
Аудио #1
Идентификатор : 189 (0xBD)-128 (0x80)
Формат : AC-3
Формат/Информация : Audio Coding 3
Расширение режима : CM (complete main)
Параметр Endianness формата : Big
Режим смешивания : DVD-Video
Продолжительность : 17 м.
Вид битрейта : Постоянный
Битрейт : 192 Кбит/сек
Каналы : 2 канала
Расположение каналов : Front: L R
Частота : 48,0 КГц
Битовая глубина : 16 бит
Метод сжатия : С потерями
Задержка видео : 17 мс.
Размер потока : 24,0 Мбайт (2%)
Аудио #2
Идентификатор : 189 (0xBD)-129 (0x81)
Формат : AC-3
Формат/Информация : Audio Coding 3
Расширение режима : CM (complete main)
Параметр Endianness формата : Big
Режим смешивания : DVD-Video
Продолжительность : 17 м.
Вид битрейта : Постоянный
Битрейт : 192 Кбит/сек
Каналы : 2 канала
Расположение каналов : Front: L R
Частота : 48,0 КГц
Битовая глубина : 16 бит
Метод сжатия : С потерями
Задержка видео : 17 мс.
Размер потока : 24,0 Мбайт (2%)
Текст #1
Идентификатор : 189 (0xBD)-32 (0x20)
Формат : RLE
Формат/Информация : Run-length encoding
Режим смешивания : DVD-Video
Текст #2
Идентификатор : 189 (0xBD)-34 (0x22)
Формат : RLE
Формат/Информация : Run-length encoding
Режим смешивания : DVD-Video
Меню
Постеры и обложки
Скриншоты меню
Download
Сайт не распространяет и не хранит электронные версии произведений, а лишь предоставляет доступ к создаваемому пользователями каталогу ссылок на торрент-файлы, которые содержат только списки хеш-сумм
Как скачивать? (для скачивания .torrent файлов необходима регистрация)
[Профиль]  [ЛС] 

AlsKnight

Стаж: 11 лет 8 месяцев

Сообщений: 7924

AlsKnight · 19-Мар-15 14:51 (спустя 1 день 1 час)

# сомнительно: 15 warn и 44 note многовато для единственной операции добавления сабов
[Профиль]  [ЛС] 

troy-serge

Стаж: 8 лет 6 месяцев

Сообщений: 262

troy-serge · 18-Апр-19 15:58 (спустя 4 года, ред. 30-Апр-19 09:31)

Станьте на раздачу, плиз....скорость на нуле!!! позвольте фильм скачать. Спс.
Скачивается....спасибо!!!
[Профиль]  [ЛС] 
 
Ответить
Loading...
Error