(Vocal Jazz) [CD] Miss Sophie Lee and The Parish Suites - Traverse This Universe - 2016, FLAC (tracks+.cue), lossless

Страницы:  1

Ответить
Автор
Сообщение

papa1954

Top Seed 09* 10240r

Стаж: 12 лет 4 месяца

Сообщений: 16947

papa1954 · 11-Ноя-16 14:49 (2 года 8 месяцев назад, ред. 11-Ноя-16 15:10)

Miss Sophie Lee and The Parish Suites - Traverse This Universe Жанр: Vocal Jazz
Носитель: CD
Год издания: 2016
Издатель (лейбл): Sophieleemusic
Номер по каталогу: 888295411288
Аудиокодек: FLAC (*.flac)
Тип рипа: tracks+.cue
Битрейт аудио: lossless
Продолжительность: 39:02
Источник (релизер): ruskaval
Наличие сканов в содержимом раздачи: да
Треклист:
01. You And Me (The Universe) (4:20)
02. That's When Your Heartaches Begin (4:22)
03. Someday (3:27)
04. A Safe Place (3:01)
05. Undecided (4:36)
06. Under The Moon (2:53)
07. The Way That Love Can Be (3:11)
08. Ain't Misbehaving (3:26)
09. It Don't Mean A Thing If It Ain't Got That Swing (3:29)
10. Mean To Me (3:32)
11. Lovely In That Dress (2:45)
Музыканты
Vocals Miss Sophie Lee
Guitar Matt Bell
Trumpet David Boswell
Guitar Matt Johnson
Clarinet Aurora Nealand
Piano Bart Ramsey
Bass Tommy Sciple
Drums Benji Bohannon
Organ, Piano Coogan, Brian
Bass Cassidy Holden
Violin Matt Rhody
Arrangements, Clarinet, Guitar, Recorder Luke Winslow-King
Drums, Timbales Chris Davis
Trombone Charlie Halloran
Bass Charles Lumar
Trumpet Ashlin Parker
Saxophone Khris Royal
Arrangements, Organ, Piano Earl Scioneaux, III
Cello Helen Gillet
Guitar Casey McAllister
Bass Saxophone Tom Saunders
Clarinet Oliver Bonie
Guitar Chris Christy
Piano Leslie Martin
Arrangements, Trumpet Ben Polcer
Bass Robert Snow
Guitar Russell Welch
Несколько слов на английском
Her fourth release, “Traverse This Universe”, finds Ms. Sophie Lee reaching beyond her traditional jazz roots with original material written alongside her ukulele and with the help of producer/songwriters Luke Winslow-King, Earl J. Scioneaux, III and Ben Polcer. “Traverse This Universe” features six original compositions and five standards performed by Ms. Sophie Lee’s mainstay Spotted Cat band and showcasing over a dozen talented New Orleans musicians, including Aurora Nealand, Helen Gillet, Charlie Halloran, Khris Royal amongst others. As lagniappe, the album artwork highlights the creative talents of her eight and six year old daughters.
Sophie Lee, transplanted native of the ’90s or not, could be turning into the Leah Chase of trad jazz; not only does she operate Three Muses while holding down a steady gig at the Spotted Cat, she’s preparing to relaunch Seoul Shack in mid-summer at an Uptown location.
Frankly, the local market is oversaturated with earnest, sensual, earthy singers following in Billie Holiday’s footsteps, so it’s good to see that her latest album is also about expanding her range. In this town, the singer in you always has to keep up with the restaurateur. There are a handful of covers of deathless pop-jazz warhorses to be sure—“Ain’t Misbehavin’,” “It Don’t Mean a Thing If It Ain’t Got That Swing” and “That’s When Your Heartaches Begin” are typically obvious moves, even if it is always nice to groove along to Ella’s “Undecided”—but the original half of this album, as it starts to stretch out, reveals actual warmth in her delivery and not just sultriness.
At first, she uses it to color her usual sketches, re the cocktail hour mellow of “You and Me (The Universe),” but the samba of “Someday,” the country waltz of “A Safe Place” and the reggae of “Under the Moon” don’t lose a bit of solace in translation. The closing “Lovely in That Dress,” especially, is a glowing benediction, and “The Way That Love Can Be” removes all her sepia-tone glory to fashion a completely modern funky R&B track, psychedelic and moody in ways that only tangentially touch upon her jazz roots. It’s a terrific gamble that pays off, and a damn good sign for her creativity. After all, it’s also true for food: When things get obvious, bring in some outside flavors.
 
Лог создания рипа
Exact Audio Copy V1.1 from 23. June 2015
EAC extraction logfile from 13. August 2016, 15:40
Sophie Lee / Traverse This Universe
Used drive : MATSHITADVD+-RW SW830 Adapter: 1 ID: 0
Read mode : Secure
Utilize accurate stream : Yes
Defeat audio cache : Yes
Make use of C2 pointers : No
Read offset correction : 6
Overread into Lead-In and Lead-Out : No
Fill up missing offset samples with silence : Yes
Delete leading and trailing silent blocks : No
Null samples used in CRC calculations : Yes
Used interface : Native Win32 interface for Win NT & 2000
Gap handling : Appended to previous track
Used output format : User Defined Encoder
Selected bitrate : 896 kBit/s
Quality : High
Add ID3 tag : No
Command line compressor : C:\Program Files (x86)\Exact Audio Copy\Flac\flac.exe
Additional command line options : -8 -V -T "ARTIST=%artist%" -T "TITLE=%title%" -T "ALBUM=%albumtitle%" -T "DATE=%year%" -T "TRACKNUMBER=%tracknr%" -T "TOTALTRACKS=%numtracks%" -T "GENRE=%genre%" -T "ALBUMARTIST=%albumartist%" -T "ALBUM ARTIST=%albumartist%" -T "COMMENT=EAC Secure Mode, Test & Copy, AccurateRip, FLAC -8" %source%
TOC of the extracted CD
Track | Start | Length | Start sector | End sector
---------------------------------------------------------
1 | 0:00.00 | 4:19.45 | 0 | 19469
2 | 4:19.45 | 4:21.43 | 19470 | 39087
3 | 8:41.13 | 3:26.61 | 39088 | 54598
4 | 12:07.74 | 3:01.16 | 54599 | 68189
5 | 15:09.15 | 4:36.16 | 68190 | 88905
6 | 19:45.31 | 2:53.25 | 88906 | 101905
7 | 22:38.56 | 3:11.22 | 101906 | 116252
8 | 25:50.03 | 3:25.38 | 116253 | 131665
9 | 29:15.41 | 3:29.17 | 131666 | 147357
10 | 32:44.58 | 3:32.12 | 147358 | 163269
11 | 36:16.70 | 2:45.20 | 163270 | 175664
Track 1
Filename G:\New Rips\Sophie Lee - Traverse This Universe (2016) [FLAC]\01 - You And Me.wav
Pre-gap length 0:00:02.00
Peak level 97.8 %
Extraction speed 4.0 X
Track quality 99.9 %
Test CRC C6549792
Copy CRC C6549792
Accurately ripped (confidence 1) [16B115C8] (AR v2)
Copy OK
Track 2
Filename G:\New Rips\Sophie Lee - Traverse This Universe (2016) [FLAC]\02 - That's When Your Heartaches Begin.wav
Peak level 97.8 %
Extraction speed 4.4 X
Track quality 99.9 %
Test CRC 0EB41C8E
Copy CRC 0EB41C8E
Accurately ripped (confidence 1) [ED743B77] (AR v2)
Copy OK
Track 3
Filename G:\New Rips\Sophie Lee - Traverse This Universe (2016) [FLAC]\03 - Someday.wav
Peak level 97.8 %
Extraction speed 4.3 X
Track quality 99.9 %
Test CRC AFBF2230
Copy CRC AFBF2230
Accurately ripped (confidence 1) [9D28AC77] (AR v2)
Copy OK
Track 4
Filename G:\New Rips\Sophie Lee - Traverse This Universe (2016) [FLAC]\04 - A Safe Place.wav
Peak level 97.8 %
Extraction speed 5.6 X
Track quality 100.0 %
Test CRC 9BA2CCC6
Copy CRC 9BA2CCC6
Accurately ripped (confidence 1) [9202505A] (AR v2)
Copy OK
Track 5
Filename G:\New Rips\Sophie Lee - Traverse This Universe (2016) [FLAC]\05 - Undecided.wav
Peak level 97.8 %
Extraction speed 5.3 X
Track quality 99.9 %
Test CRC 85B2254F
Copy CRC 85B2254F
Accurately ripped (confidence 1) [6138F33C] (AR v2)
Copy OK
Track 6
Filename G:\New Rips\Sophie Lee - Traverse This Universe (2016) [FLAC]\06 - Under The Moon.wav
Peak level 94.5 %
Extraction speed 6.2 X
Track quality 100.0 %
Test CRC D0609F0F
Copy CRC D0609F0F
Accurately ripped (confidence 1) [DEBA5A92] (AR v2)
Copy OK
Track 7
Filename G:\New Rips\Sophie Lee - Traverse This Universe (2016) [FLAC]\07 - The Way That Love Can Be.wav
Peak level 97.8 %
Extraction speed 6.6 X
Track quality 100.0 %
Test CRC BD4C3886
Copy CRC BD4C3886
Accurately ripped (confidence 1) [790C578B] (AR v2)
Copy OK
Track 8
Filename G:\New Rips\Sophie Lee - Traverse This Universe (2016) [FLAC]\08 - Ain't Misbehaving.wav
Peak level 97.8 %
Extraction speed 5.4 X
Track quality 99.9 %
Test CRC 41407335
Copy CRC 41407335
Accurately ripped (confidence 1) [09568263] (AR v2)
Copy OK
Track 9
Filename G:\New Rips\Sophie Lee - Traverse This Universe (2016) [FLAC]\09 - It Don't Mean A Thing.wav
Peak level 97.8 %
Extraction speed 7.1 X
Track quality 100.0 %
Test CRC 75042D1E
Copy CRC 75042D1E
Accurately ripped (confidence 1) [270FECFA] (AR v2)
Copy OK
Track 10
Filename G:\New Rips\Sophie Lee - Traverse This Universe (2016) [FLAC]\10 - Mean To Me.wav
Peak level 97.8 %
Extraction speed 5.8 X
Track quality 99.9 %
Test CRC FF1CFDAE
Copy CRC FF1CFDAE
Accurately ripped (confidence 1) [89F629B6] (AR v2)
Copy OK
Track 11
Filename G:\New Rips\Sophie Lee - Traverse This Universe (2016) [FLAC]\11 - Lovely In That Dress.wav
Peak level 97.7 %
Extraction speed 7.2 X
Track quality 100.0 %
Test CRC 150EAB60
Copy CRC 150EAB60
Accurately ripped (confidence 1) [0C09316F] (AR v2)
Copy OK
All tracks accurately ripped
No errors occurred
End of status report
---- CUETools DB Plugin V2.1.6
[CTDB TOCID: ixwzIaNKf8B8TSMolH5x6P8vBBk-] disk not present in database
Submit result: ixwzIaNKf8B8TSMolH5x6P8vBBk- has been uploaded
==== Log checksum 7D39DB319F9E5832DACD94A444F07BCF15DCA6B621E2E2F53CD06DAC4B686F20 ====
Содержание индексной карты (.CUE)
REM GENRE Jazz
REM DATE 2016
REM DISCID 9609260B
REM COMMENT "ExactAudioCopy v1.1"
PERFORMER "Sophie Lee"
TITLE "Traverse This Universe"
FILE "01 - You And Me.wav" WAVE
TRACK 01 AUDIO
TITLE "You And Me"
PERFORMER "Sophie Lee"
INDEX 01 00:00:00
FILE "02 - That's When Your Heartaches Begin.wav" WAVE
TRACK 02 AUDIO
TITLE "That's When Your Heartaches Begin"
PERFORMER "Sophie Lee"
INDEX 01 00:00:00
FILE "03 - Someday.wav" WAVE
TRACK 03 AUDIO
TITLE "Someday"
PERFORMER "Sophie Lee"
INDEX 01 00:00:00
FILE "04 - A Safe Place.wav" WAVE
TRACK 04 AUDIO
TITLE "A Safe Place "
PERFORMER "Sophie Lee"
INDEX 01 00:00:00
FILE "05 - Undecided.wav" WAVE
TRACK 05 AUDIO
TITLE "Undecided"
PERFORMER "Sophie Lee"
INDEX 01 00:00:00
FILE "06 - Under The Moon.wav" WAVE
TRACK 06 AUDIO
TITLE "Under The Moon"
PERFORMER "Sophie Lee"
INDEX 01 00:00:00
FILE "07 - The Way That Love Can Be.wav" WAVE
TRACK 07 AUDIO
TITLE "The Way That Love Can Be"
PERFORMER "Sophie Lee"
INDEX 01 00:00:00
FILE "08 - Ain't Misbehaving.wav" WAVE
TRACK 08 AUDIO
TITLE "Ain't Misbehaving"
PERFORMER "Sophie Lee"
INDEX 01 00:00:00
FILE "09 - It Don't Mean A Thing.wav" WAVE
TRACK 09 AUDIO
TITLE "It Don't Mean A Thing"
PERFORMER "Sophie Lee"
INDEX 01 00:00:00
FILE "10 - Mean To Me.wav" WAVE
TRACK 10 AUDIO
TITLE "Mean To Me "
PERFORMER "Sophie Lee"
INDEX 01 00:00:00
FILE "11 - Lovely In That Dress.wav" WAVE
TRACK 11 AUDIO
TITLE "Lovely In That Dress"
PERFORMER "Sophie Lee"
INDEX 01 00:00:00
Download
Для скачивания .torrent файлов необходима регистрация
Сайт не распространяет и не хранит электронные версии произведений, а лишь предоставляет доступ к создаваемому пользователями каталогу ссылок на торрент-файлы, которые содержат только списки хеш-сумм
[Профиль]  [ЛС] 
 
Ответить
Loading...
Error