(Vocal Jazz, Post-Bop) [CD] Camille Thurman - Inside the Moment - 2017, FLAC (tracks+.cue), lossless

Страницы:  1

Ответить
Автор
Сообщение

fiks22

Top Seed 08* 5120r

Стаж: 11 лет 9 месяцев

Сообщений: 11036

fiks22 · 31-Окт-17 00:56 (1 год 8 месяцев назад)

Camille Thurman - Inside the Moment
Жанр: Vocal Jazz, Post-Bop
Носитель: CD
Страна-производитель диска (релиза): США
Год издания: 2017
Издатель (лейбл): Chesky Records (Binaural+ Series)
Номер по каталогу: JD397
Аудиокодек: FLAC (*.flac)
Тип рипа: tracks+.cue
Битрейт аудио: lossless
Продолжительность: 49:18
Источник (релизер): hirudolibera
Наличие сканов в содержимом раздачи: да
Треклист:
01. The Night Has a Thousand Eyes (Bernier-Brainin) - 7:22
02. Sassy's Blues (Vaughan-Jones) - 7:40
03. Road Song (Montgomery) - 6:13
04. Detour Ahead (Carter-Ellis-Frigo) - 7:43
05. Nefertiti (Shorter) - 7:43
06. Flower Is a Lovesome Thing (Strayhorn) - 7:42
07. Cherokee (Noble) - 4:55
Состав:
Camille Thurman - tenor saxophone, vocals
Ben Allison - bass
Billy Drummond - drums
Mark Whitfield - guitar
Recorded live at Rockwood Music Hall, New York on February 19, 2017.
Лог создания рипа
Exact Audio Copy V1.3 from 2. September 2016
EAC extraction logfile from 14. October 2017, 16:27
Camille Thurman / Inside the Moment
Used drive : HL-DT-STBD-RE BE16NU50 Adapter: 1 ID: 0
Read mode : Secure
Utilize accurate stream : Yes
Defeat audio cache : Yes
Make use of C2 pointers : No
Read offset correction : 6
Overread into Lead-In and Lead-Out : No
Fill up missing offset samples with silence : Yes
Delete leading and trailing silent blocks : No
Null samples used in CRC calculations : Yes
Used interface : Native Win32 interface for Win NT & 2000
Gap handling : Appended to previous track
Used output format : User Defined Encoder
Selected bitrate : 1024 kBit/s
Quality : High
Add ID3 tag : No
Command line compressor : C:\Program Files (x86)\Exact Audio Copy\FLAC\FLAC.EXE
Additional command line options : -8 -e -p -V -T "TITLE=%title%" -T "TITLESORT=%title%" -T "ARTIST=%artist%" -T "ARTISTSORT=%artist%" -T "ALBUMARTIST=%albumartist%" -T "ALBUMARTISTSORT=%albumartist%" -T "ALBUM=%albumtitle%" -T "ALBUMSORT=%albumtitle%" -T "COMPOSER=%composer%" -T "COMPOSERSORT=%composer%" -T "DATE=%year%" -T "RELEASEDATE=%year%" -T "TRACKNUMBER=%tracknr%" -T "TRACKTOTAL=%numtracks%" -T "DISCNUMBER=%cdnumber%" -T "DISCTOTAL=%totalcds%" -T "MEDIA=CD" -T "GENRE=%genre%" %source% -o %dest%
TOC of the extracted CD
Track | Start | Length | Start sector | End sector
---------------------------------------------------------
1 | 0:00.00 | 7:22.00 | 0 | 33149
2 | 7:22.00 | 7:40.02 | 33150 | 67651
3 | 15:02.02 | 6:13.01 | 67652 | 95627
4 | 21:15.03 | 7:43.02 | 95628 | 130354
5 | 28:58.05 | 7:43.01 | 130355 | 165080
6 | 36:41.06 | 7:42.02 | 165081 | 199732
7 | 44:23.08 | 4:55.00 | 199733 | 221857
Track 1
Filename C:\EAC\01 The Night Has a Thousand Eyes.wav
Pre-gap length 0:00:02.00
Peak level 96.8 %
Extraction speed 4.9 X
Track quality 100.0 %
Test CRC 28945FA1
Copy CRC 28945FA1
Accurately ripped (confidence 2) [8D0A835D] (AR v2)
Copy OK
Track 2
Filename C:\EAC\02 Sassy's Blues.wav
Peak level 95.8 %
Extraction speed 5.8 X
Track quality 100.0 %
Test CRC CAF6E866
Copy CRC CAF6E866
Accurately ripped (confidence 2) [28131D69] (AR v2)
Copy OK
Track 3
Filename C:\EAC\03 Road Song.wav
Peak level 96.4 %
Extraction speed 6.4 X
Track quality 100.0 %
Test CRC 132B5381
Copy CRC 132B5381
Accurately ripped (confidence 2) [42D4E06D] (AR v2)
Copy OK
Track 4
Filename C:\EAC\04 Detour Ahead.wav
Peak level 95.4 %
Extraction speed 7.1 X
Track quality 100.0 %
Test CRC 8DA17111
Copy CRC 8DA17111
Accurately ripped (confidence 2) [255D1A9F] (AR v2)
Copy OK
Track 5
Filename C:\EAC\05 Nefertiti.wav
Peak level 96.3 %
Extraction speed 7.7 X
Track quality 100.0 %
Test CRC FD580B42
Copy CRC FD580B42
Accurately ripped (confidence 1) [FF54D3CD] (AR v2)
Copy OK
Track 6
Filename C:\EAC\06 Flower Is a Lovesome Thing.wav
Peak level 93.7 %
Extraction speed 8.3 X
Track quality 100.0 %
Test CRC 08937F9F
Copy CRC 08937F9F
Accurately ripped (confidence 2) [BE32C0BE] (AR v2)
Copy OK
Track 7
Filename C:\EAC\07 Cherokee.wav
Peak level 89.6 %
Extraction speed 8.3 X
Track quality 100.0 %
Test CRC DA334735
Copy CRC DA334735
Accurately ripped (confidence 2) [DAE7FB6F] (AR v2)
Copy OK
All tracks accurately ripped
No errors occurred
End of status report
---- CUETools DB Plugin V2.1.6
[CTDB TOCID: iKiwW93t6S5pnjagz9Nas3F6dOQ-] found
Submit result: iKiwW93t6S5pnjagz9Nas3F6dOQ- has been confirmed
Track | CTDB Status
1 | (5/5) Accurately ripped
2 | (5/5) Accurately ripped
3 | (5/5) Accurately ripped
4 | (5/5) Accurately ripped
5 | (5/5) Accurately ripped
6 | (5/5) Accurately ripped
7 | (5/5) Accurately ripped
==== Log checksum 6117D2D5D9030F0D19103B9B78D7A4C058F72E7267E46F2656C4FA16CBB5BA11 ====
Содержание индексной карты (.CUE)
REM GENRE Jazz
REM DATE 2017
REM DISCID 520B8E07
REM COMMENT "ExactAudioCopy v1.3"
CATALOG 0090368039729
PERFORMER "Camille Thurman"
TITLE "Inside the Moment"
FILE "01 - The Night Has a Thousand Eyes.wav" WAVE
TRACK 01 AUDIO
TITLE "The Night Has a Thousand Eyes"
PERFORMER "Camille Thurman"
ISRC US99C1739701
INDEX 01 00:00:00
FILE "02 - Sassy's Blues.wav" WAVE
TRACK 02 AUDIO
TITLE "Sassy's Blues"
PERFORMER "Camille Thurman"
ISRC US99C1739702
INDEX 01 00:00:00
FILE "03 - Road Song.wav" WAVE
TRACK 03 AUDIO
TITLE "Road Song"
PERFORMER "Camille Thurman"
ISRC US99C1739703
INDEX 01 00:00:00
FILE "04 - Detour Ahead.wav" WAVE
TRACK 04 AUDIO
TITLE "Detour Ahead"
PERFORMER "Camille Thurman"
ISRC US99C1739704
INDEX 01 00:00:00
FILE "05 - Nefertiti.wav" WAVE
TRACK 05 AUDIO
TITLE "Nefertiti"
PERFORMER "Camille Thurman"
ISRC US99C1739705
INDEX 01 00:00:00
FILE "06 - Flower Is a Lovesome Thing.wav" WAVE
TRACK 06 AUDIO
TITLE "Flower Is a Lovesome Thing"
PERFORMER "Camille Thurman"
ISRC US99C1739706
INDEX 01 00:00:00
FILE "07 - Cherokee.wav" WAVE
TRACK 07 AUDIO
TITLE "Cherokee"
PERFORMER "Camille Thurman"
ISRC US99C1739707
INDEX 01 00:00:00
Отчет CUETools
[CUETools log; Date: 31.10.2017 0:47:33; Version: 2.1.5]
[CTDB TOCID: iKiwW93t6S5pnjagz9Nas3F6dOQ-] found.
Track | CTDB Status
1 | (6/6) Accurately ripped
2 | (6/6) Accurately ripped
3 | (6/6) Accurately ripped
4 | (6/6) Accurately ripped
5 | (6/6) Accurately ripped
6 | (6/6) Accurately ripped
7 | (6/6) Accurately ripped
[AccurateRip ID: 000df031-00536b91-520b8e07] found.
Track [ CRC | V2 ] Status
01 [01355d76|8d0a835d] (0+2/2) Accurately ripped
02 [37778775|28131d69] (0+2/2) Accurately ripped
03 [76e12dba|42d4e06d] (0+2/2) Accurately ripped
04 [df385f7a|255d1a9f] (0+2/2) Accurately ripped
05 [1611c1db|ff54d3cd] (0+1/1) Accurately ripped
06 [a8eb86f1|be32c0be] (0+2/2) Accurately ripped
07 [93cfae69|dae7fb6f] (0+2/2) Accurately ripped
Track Peak [ CRC32 ] [W/O NULL] [ LOG ]
-- 96,8 [6FD221C9] [AFE20010]
01 96,8 [28945FA1] [7E901895] CRC32
02 95,8 [CAF6E866] [AA9FAA3F] CRC32
03 96,4 [132B5381] [86CEAD2B] CRC32
04 95,4 [8DA17111] [9AEA0D96] CRC32
05 96,3 [FD580B42] [2F6F20CA] CRC32
06 93,7 [08937F9F] [7F2F8462] CRC32
07 89,6 [DA334735] [EBAAA829] CRC32
Review by James Nadal
As a first call saxophonist and vocalist, Camille Thurman has appeared as guest accompanist on so many albums and performances by acclaimed artists, it's hard to imagine where she found the time for Inside The Moment . Having released both Origins and Spirit Child back to back in 2014, and as the recipient of prestigious awards for her musical talents, Thurman has been steadily adding to her impressive resume; this live set proving why and how she is one of the shining stars on the current jazz scene.
Offering the listener an in-depth aural experience, this was recorded at the Rockwood Music Hall, in New York City, utilizing Chesky Records' exclusive Binaural Head (one microphone) recording system. Working with just a quartet, Thurman offers a varied set that highlights her musical duality as a saxophonist and vocalist, augmented by her inherent sense of improvisation.
Leading off with the assertive drumming of Billy Drummond, "The Night Has A Thousand Eyes," is an upbeat vehicle for Thurman to demonstrate her impeccable technique and tone on the tenor sax. Guitarist Mark Whitfield is allowed ample time for individual expression, while Ben Allison holds steady on the bass. She steps into her vocalist persona with "Sassy's Blues," a Sarah Vaughan, Thad Jones composition that outlines the direct lineage between herself and Vaughan, in term of scatting and singing styles. Allison shines on an extended bass solo on this track, providing a low end cushion for the vocal.
The influential guitarist Wes Montgomery is covered on "Road Song," Whitfield and Thurman re- interpreting the well-known arrangement, offering novel approaches on the familiar melody line. The Vaughan vocal connection is reexamined with the delicate ballad "Detour Ahead," while the instrumental "Nefertiti," composed by Miles Davis, is slightly accelerated and everyone is given a chance to stretch out due to a comfortable length in time and space. She returns to center stage with her sax on Billy Strayhorn's "Flower Is A Lovesome Thing," revealing her capability to convey the proper mood and emotion the song requires, while drawing inspiration from Dexter Gordon. The renowned standard "Cherokee," is a swinging, yet subdued bass and vocal duet, as the repertoire eases into conclusion.
Though Camille Thurman is also recognized as a composer, as well as for her saxophone and vocal talents, on this project she opted for covering the vast jazz songbook. Acknowledged for her high level contribution with acts ranging from pop to neo-soul, Thurman is portrayed here in her first and true calling, jazz. Her teaming up with Chesky has provided an innovative opportunity for appreciation of an exclusive performance, where both sound and artistic quality is outstanding, and a delight for audiophiles and jazz aficionados alike.
Download
Для скачивания .torrent файлов необходима регистрация
Сайт не распространяет и не хранит электронные версии произведений, а лишь предоставляет доступ к создаваемому пользователями каталогу ссылок на торрент-файлы, которые содержат только списки хеш-сумм
[Профиль]  [ЛС] 
 
Ответить
Loading...
Error