(Vocal Jazz) [CD] Tony Bennett & Diana Krall - Love Is Here To Stay (Deluxe Edition) [SHM-CD+DVD] [Limited Edition] - 2018, FLAC (image+.cue), lossless

Страницы:  1

Ответить
Автор
Сообщение

Leo246

Стаж: 5 лет

Сообщений: 201

Leo246 · 10-Окт-18 20:34 (9 месяцев назад, ред. 11-Окт-18 09:55)

Tony Bennett & Diana Krall / Love Is Here To Stay SHM-CD
Жанр: Vocal Jazz
Носитель: CD
Страна-производитель диска (релиза): Japan
Год издания: 2018
Издатель (лейбл): Verve
Номер по каталогу: UCCV-9677
Страна исполнителя (группы): Canada
Аудиокодек: FLAC (*.flac)
Тип рипа: image+.cue
Битрейт аудио: lossless
Продолжительность: 00:43:30
Источник (релизер): Leo246
Наличие сканов в содержимом раздачи: front/back
Треклист:
01. 'S Wonderful (2:51)
02. My One And Only (2:50)
03. But Not For Me (3:07)
04. Nice Work If You Can Get It (2:45)
05. Love Is Here To Stay (4:28)
06. I Got Rhythm (2:00)
07. Somebody Loves Me (3:42)
08. Do It Again (2:55)
09. I’ve Got A Crush On You (4:00)
10. Fascinating Rhythm (2:43)
11. They Can’t Take That Away From Me (3:25)
12. Who Cares? (1:56)
13. How Long Has This Been Going On (4:16)
14. A Foggy Day (2:27)
Лог создания рипа
Exact Audio Copy V1.3 from 2. September 2016
EAC extraction logfile from 10. October 2018, 11:07
Tony Bennett & Diana Krall / Love Is Here To Stay
Used drive : PLEXTOR DVD-RW PX-608U Adapter: 1 ID: 0
Read mode : Secure
Utilize accurate stream : Yes
Defeat audio cache : Yes
Make use of C2 pointers : No
Read offset correction : 48
Overread into Lead-In and Lead-Out : No
Fill up missing offset samples with silence : Yes
Delete leading and trailing silent blocks : No
Null samples used in CRC calculations : Yes
Used interface : Native Win32 interface for Win NT & 2000
Used output format : User Defined Encoder
Selected bitrate : 1024 kBit/s
Quality : High
Add ID3 tag : No
Command line compressor : C:\Program Files\Exact Audio Copy\FLAC\FLAC.EXE
Additional command line options : -8 -V -T "ARTIST=%artist%" -T "TITLE=%title%" -T "ALBUM=%albumtitle%" -T "DATE=%year%" -T "TRACKNUMBER=%tracknr%" -T "GENRE=%genre%" -T "COMMENT=%comment%" -T "BAND=%albuminterpret%" -T "ALBUMARTIST=%albuminterpret%" -T "COMPOSER=%composer%" %haslyrics%--tag-from-file=LYRICS="%lyricsfile%"%haslyrics% -T "DISCNUMBER=%cdnumber%" -T "TOTALDISCS=%totalcds%" -T "TOTALTRACKS=%numtracks%" %hascover%--picture="%coverfile%"%hascover% %source% -o %dest%
TOC of the extracted CD
Track | Start | Length | Start sector | End sector
---------------------------------------------------------
1 | 0:00.00 | 2:51.46 | 0 | 12870
2 | 2:51.46 | 2:50.37 | 12871 | 25657
3 | 5:42.08 | 3:06.44 | 25658 | 39651
4 | 8:48.52 | 2:45.06 | 39652 | 52032
5 | 11:33.58 | 4:28.01 | 52033 | 72133
6 | 16:01.59 | 1:59.67 | 72134 | 81125
7 | 18:01.51 | 3:41.61 | 81126 | 97761
8 | 21:43.37 | 2:55.30 | 97762 | 110916
9 | 24:38.67 | 4:00.24 | 110917 | 128940
10 | 28:39.16 | 2:42.65 | 128941 | 141155
11 | 31:22.06 | 3:25.04 | 141156 | 156534
12 | 34:47.10 | 1:59.08 | 156535 | 165467
13 | 36:46.18 | 4:16.53 | 165468 | 184720
14 | 41:02.71 | 2:27.36 | 184721 | 195781
Range status and errors
Selected range
Filename Z:\Audio\UCCV-9677 Diana Krall and Tony Bennet - Love Is Here To Stay (Deluxe Edition) [SHM-CD+DVD] [Limited Edition] FLAC\Tony Bennett & Diana Krall - Love Is Here To Stay.wav
Peak level 99.9 %
Extraction speed 3.0 X
Range quality 100.0 %
Test CRC C28F09D7
Copy CRC C28F09D7
Copy OK
No errors occurred
AccurateRip summary
Track 1 accurately ripped (confidence 3) [8A3D86EB] (AR v2)
Track 2 accurately ripped (confidence 3) [4C6D436A] (AR v2)
Track 3 accurately ripped (confidence 3) [5B88CEA9] (AR v2)
Track 4 accurately ripped (confidence 3) [24E64E60] (AR v2)
Track 5 accurately ripped (confidence 3) [72252E03] (AR v2)
Track 6 accurately ripped (confidence 3) [4729EA3D] (AR v2)
Track 7 accurately ripped (confidence 3) [F2BFC472] (AR v2)
Track 8 accurately ripped (confidence 3) [1754F16D] (AR v2)
Track 9 accurately ripped (confidence 3) [963BAE09] (AR v2)
Track 10 accurately ripped (confidence 3) [33E13AA7] (AR v2)
Track 11 accurately ripped (confidence 3) [5C499054] (AR v2)
Track 12 accurately ripped (confidence 3) [B210F847] (AR v2)
Track 13 accurately ripped (confidence 3) [779C7A70] (AR v2)
Track 14 accurately ripped (confidence 3) [F6DAA8C1] (AR v2)
All tracks accurately ripped
End of status report
---- CUETools DB Plugin V2.1.6
[CTDB TOCID: eGnkVoXaze2s00jDhJW614XmC1c-] found
Submit result: eGnkVoXaze2s00jDhJW614XmC1c- has been confirmed
Track | CTDB Status
1 | (53/53) Accurately ripped
2 | (53/53) Accurately ripped
3 | (53/53) Accurately ripped
4 | (53/53) Accurately ripped
5 | (53/53) Accurately ripped
6 | (53/53) Accurately ripped
7 | (53/53) Accurately ripped
8 | (53/53) Accurately ripped
9 | (53/53) Accurately ripped
10 | (53/53) Accurately ripped
11 | (53/53) Accurately ripped
12 | (53/53) Accurately ripped
13 | (53/53) Accurately ripped
14 | (53/53) Accurately ripped
==== Log checksum 7740AF86060C89A56EF8475FAEC156FFB4D837EC5C243D75890C9E4F3637E0FD ====
Содержание индексной карты (.CUE)
REM GENRE Jazz
REM DATE 2018
REM DISCID B70A320E
REM COMMENT "ExactAudioCopy v1.3"
PERFORMER "Tony Bennett & Diana Krall"
TITLE "Love Is Here To Stay"
REM COMPOSER ""
FILE "Tony Bennett & Diana Krall - Love Is Here To Stay.flac" WAVE
TRACK 01 AUDIO
TITLE "'S Wonderful"
PERFORMER "Tony Bennett & Diana Krall"
REM COMPOSER ""
INDEX 01 00:00:00
TRACK 02 AUDIO
TITLE "My One And Only"
PERFORMER "Tony Bennett & Diana Krall"
REM COMPOSER ""
INDEX 00 02:50:14
INDEX 01 02:51:46
TRACK 03 AUDIO
TITLE "Diana Krall / But Not For Me"
PERFORMER "Tony Bennett & Diana Krall"
REM COMPOSER ""
INDEX 00 05:40:22
INDEX 01 05:42:08
TRACK 04 AUDIO
TITLE "Nice Work If You Can Get It"
PERFORMER "Tony Bennett & Diana Krall"
REM COMPOSER ""
INDEX 00 08:47:31
INDEX 01 08:48:52
TRACK 05 AUDIO
TITLE "Love Is Here To Stay"
PERFORMER "Tony Bennett & Diana Krall"
REM COMPOSER ""
INDEX 01 11:33:58
TRACK 06 AUDIO
TITLE "I Got Rhythm"
PERFORMER "Tony Bennett & Diana Krall"
REM COMPOSER ""
INDEX 00 15:59:62
INDEX 01 16:01:59
TRACK 07 AUDIO
TITLE "Somebody Loves Me"
PERFORMER "Tony Bennett & Diana Krall"
REM COMPOSER ""
INDEX 00 17:59:50
INDEX 01 18:01:51
TRACK 08 AUDIO
TITLE "Do It Again"
PERFORMER "Tony Bennett & Diana Krall"
REM COMPOSER ""
INDEX 00 21:42:00
INDEX 01 21:43:37
TRACK 09 AUDIO
TITLE "I've Got A Crush On You"
PERFORMER "Tony Bennett & Diana Krall"
REM COMPOSER ""
INDEX 00 24:36:59
INDEX 01 24:38:67
TRACK 10 AUDIO
TITLE "Fascinating Rhythm"
PERFORMER "Tony Bennett & Diana Krall"
REM COMPOSER ""
INDEX 00 28:37:35
INDEX 01 28:39:16
TRACK 11 AUDIO
TITLE "They Can't Take That Away From Me"
PERFORMER "Tony Bennett & Diana Krall"
REM COMPOSER ""
INDEX 00 31:20:44
INDEX 01 31:22:06
TRACK 12 AUDIO
TITLE "Tony Bennett / Who Cares?"
PERFORMER "Tony Bennett & Diana Krall"
REM COMPOSER ""
INDEX 00 34:45:45
INDEX 01 34:47:10
TRACK 13 AUDIO
TITLE "How Long Has This Been Going On"
PERFORMER "Tony Bennett & Diana Krall"
REM COMPOSER ""
INDEX 00 36:42:56
INDEX 01 36:46:18
TRACK 14 AUDIO
TITLE "A Foggy Day"
PERFORMER "Tony Bennett & Diana Krall"
REM COMPOSER ""
INDEX 01 41:02:71
Download
Для скачивания .torrent файлов необходима регистрация
Сайт не распространяет и не хранит электронные версии произведений, а лишь предоставляет доступ к создаваемому пользователями каталогу ссылок на торрент-файлы, которые содержат только списки хеш-сумм
[Профиль]  [ЛС] 

wurensh

Moderator

Стаж: 9 лет 5 месяцев

Сообщений: 6128

wurensh · 11-Окт-18 13:33 (спустя 16 часов, ред. 11-Окт-18 13:53)

Leo246
В описании ничего не изменилось. Укажите причину замены торрент-файла, иначе будет восстановлен предыдущий вариант раздачи.
[Профиль]  [ЛС] 

Leo246

Стаж: 5 лет

Сообщений: 201

Leo246 · 14-Окт-18 14:00 (спустя 3 дня)

wurensh писал(а):
76112690Leo246
В описании ничего не изменилось. Укажите причину замены торрент-файла, иначе будет восстановлен предыдущий вариант раздачи.
Торрент тормозился при скачивании на 99.1%
[Профиль]  [ЛС] 

burnett_s

Стаж: 9 лет 8 месяцев

Сообщений: 352

burnett_s · 14-Окт-18 20:38 (спустя 6 часов)

Any chance of scans or DVD?
Thank you!
[Профиль]  [ЛС] 

Leo246

Стаж: 5 лет

Сообщений: 201

Leo246 · 16-Окт-18 00:24 (спустя 1 день 3 часа)

burnett_s писал(а):
76132780Any chance of scans or DVD?
Thank you!
Just ask! But it will take some time
[Профиль]  [ЛС] 

IVX

Стаж: 7 лет 2 месяца

Сообщений: 12


IVX · 28-Дек-18 04:55 (спустя 2 месяца 12 дней)

качество - жыесть! Хз в чём причина, но звучит жутко глухо без вч, что совершенно нехарактерно для дайаны вообще. Перекачивал ещё какой-то торент - то же самое, так что видимо так уж они решили записать в 2018, под 78 оборотов 60х годов ))
[Профиль]  [ЛС] 
 
Ответить
Loading...
Error