(Vocal Jazz, Classical) [CD] Patricia Barber - Higher - 2019, FLAC (tracks+.cue), lossless

Страницы:  1

Ответить
Автор
Сообщение

fiks22

Top Seed 08* 5120r

Стаж: 11 лет 9 месяцев

Сообщений: 11016

fiks22 · 09-Апр-19 00:20 (3 месяца 10 дней назад, ред. 09-Апр-19 00:24)

Patricia Barber - Higher
Жанр: Vocal Jazz, Classical
Носитель: CD
Страна-производитель диска (релиза): США
Год издания: 2019
Издатель (лейбл): ArtistShare
Аудиокодек: FLAC (*.flac)
Тип рипа: tracks+.cue
Битрейт аудио: lossless
Продолжительность: 00:55:22
Источник: MRmarket
Наличие сканов в содержимом раздачи: нет
Треклист:
01. Muse (Barber) - 5:45
02. Surrender (Barber) - 5:44
03. Pallid Angel (Barber) - 3:49
04. The Opera Song (Barber) - 4:30
05. High Summer Season (Barber) - 3:30
06. The Albatross (Barber) - 5:26
07. Voyager (Barber) - 4:26
08. Higher (Barber) - 3:12
09. Early Autumn (Mercer-Burns-Herman) - 5:23
10. In Your Own Sweet Way (Brubeck-Brubeck) - 6:09
11. Secret Love (Webster-Fain) - 2:41
12. The Opera Song with Katherine Werbiansky (Barber) - 4:47
Состав:
Patricia Barber - piano, voice
Patrick Mulcahy - bass
Jon Deitemyer - drums
Neal Alger - acoustic guitar
Jim Gailloreto - tenor saxophone
Katherine Werbiansky - lyric soprano
Лог создания рипа
X Lossless Decoder version 20181019 (151.1)
XLD extraction logfile from 2019-03-24 07:38:19 -0400
Patricia Barber / Higher
Used drive : HL-DT-ST DVDRAM GP65NB60 (revision PB00)
Media type : Pressed CD
Ripper mode : XLD Secure Ripper
Disable audio cache : OK for the drive with a cache less than 1375KiB
Make use of C2 pointers : NO
Read offset correction : 6
Max retry count : 100
Gap status : Analyzed, Appended (except HTOA)
TOC of the extracted CD
Track | Start | Length | Start sector | End sector
---------------------------------------------------------
1 | 00:00:00 | 05:45:05 | 0 | 25879
2 | 05:45:05 | 05:43:40 | 25880 | 51644
3 | 11:28:45 | 03:49:22 | 51645 | 68841
4 | 15:17:67 | 04:29:48 | 68842 | 89064
5 | 19:47:40 | 03:30:20 | 89065 | 104834
6 | 23:17:60 | 05:25:45 | 104835 | 129254
7 | 28:43:30 | 04:25:62 | 129255 | 149191
8 | 33:09:17 | 03:11:64 | 149192 | 163580
9 | 36:21:06 | 05:23:08 | 163581 | 187813
10 | 41:44:14 | 06:09:03 | 187814 | 215491
11 | 47:53:17 | 02:41:11 | 215492 | 227577
12 | 50:34:28 | 04:46:46 | 227578 | 249073
AccurateRip Summary
Disc not found in AccurateRip DB.
All Tracks
Album gain : 0.04 dB
Peak : 0.993378
Statistics
Read error : 0
Jitter error (maybe fixed) : 0
Retry sector count : 1
Damaged sector count : 0
Track 01
Filename : /Users/rips/Art Ensemble of Chicago and associated ensembles (2018)/Patricia Barber - Higher (2019) [FLAC]/01. Muse.flac
Pre-gap length : 00:02:00
Track gain : 4.56 dB
Peak : 0.835693
CRC32 hash (test run) : 4B59DE72
CRC32 hash : 4B59DE72
CRC32 hash (skip zero) : 8B3AB76E
AccurateRip v1 signature : 07AB8DD7
AccurateRip v2 signature : 768186E0
->Track not present in AccurateRip database.
Statistics
Read error : 0
Jitter error (maybe fixed) : 0
Retry sector count : 0
Damaged sector count : 0
Track 02
Filename : /Users/rips/Art Ensemble of Chicago and associated ensembles (2018)/Patricia Barber - Higher (2019) [FLAC]/02. Surrender.flac
Track gain : 2.45 dB
Peak : 0.887421
CRC32 hash (test run) : 0281DDB5
CRC32 hash : 0281DDB5
CRC32 hash (skip zero) : 9804AFF3
AccurateRip v1 signature : 743C8FF1
AccurateRip v2 signature : 75B2680C
->Track not present in AccurateRip database.
Statistics
Read error : 0
Jitter error (maybe fixed) : 0
Retry sector count : 0
Damaged sector count : 0
Track 03
Filename : /Users/rips/Art Ensemble of Chicago and associated ensembles (2018)/Patricia Barber - Higher (2019) [FLAC]/03. Pallid Angel.flac
Track gain : -0.03 dB
Peak : 0.988464
CRC32 hash (test run) : 3335CBD9
CRC32 hash : 3335CBD9
CRC32 hash (skip zero) : DCB2A12A
AccurateRip v1 signature : E7DCFEA6
AccurateRip v2 signature : 5EECB84A
->Track not present in AccurateRip database.
Statistics
Read error : 0
Jitter error (maybe fixed) : 0
Retry sector count : 0
Damaged sector count : 0
Track 04
Filename : /Users/rips/Art Ensemble of Chicago and associated ensembles (2018)/Patricia Barber - Higher (2019) [FLAC]/04. The Opera Song.flac
Track gain : -0.50 dB
Peak : 0.991730
CRC32 hash (test run) : E493F3C0
CRC32 hash : E493F3C0
CRC32 hash (skip zero) : D74DE5F4
AccurateRip v1 signature : F00F0388
AccurateRip v2 signature : 9493E396
->Track not present in AccurateRip database.
Statistics
Read error : 0
Jitter error (maybe fixed) : 0
Retry sector count : 0
Damaged sector count : 0
Track 05
Filename : /Users/rips/Art Ensemble of Chicago and associated ensembles (2018)/Patricia Barber - Higher (2019) [FLAC]/05. High Summer Season.flac
Track gain : 0.73 dB
Peak : 0.988983
CRC32 hash (test run) : 3AB7E846
CRC32 hash : 3AB7E846
CRC32 hash (skip zero) : 2BAE323F
AccurateRip v1 signature : 9C8F79AE
AccurateRip v2 signature : 74663970
->Track not present in AccurateRip database.
Statistics
Read error : 0
Jitter error (maybe fixed) : 0
Retry sector count : 0
Damaged sector count : 0
Track 06
Filename : /Users/rips/Art Ensemble of Chicago and associated ensembles (2018)/Patricia Barber - Higher (2019) [FLAC]/06. The Albatross.flac
Track gain : -1.16 dB
Peak : 0.989868
CRC32 hash (test run) : E4297612
CRC32 hash : E4297612
CRC32 hash (skip zero) : D3C1123B
AccurateRip v1 signature : 171B2927
AccurateRip v2 signature : D53B7988
->Track not present in AccurateRip database.
Statistics
Read error : 0
Jitter error (maybe fixed) : 0
Retry sector count : 0
Damaged sector count : 0
Track 07
Filename : /Users/rips/Art Ensemble of Chicago and associated ensembles (2018)/Patricia Barber - Higher (2019) [FLAC]/07. Voyager.flac
Track gain : 3.35 dB
Peak : 0.988892
CRC32 hash (test run) : A146E6E1
CRC32 hash : A146E6E1
CRC32 hash (skip zero) : B4FF5DDD
AccurateRip v1 signature : A45940B8
AccurateRip v2 signature : F4718291
->Track not present in AccurateRip database.
Statistics
Read error : 0
Jitter error (maybe fixed) : 0
Retry sector count : 0
Damaged sector count : 0
Track 08
Filename : /Users/rips/Art Ensemble of Chicago and associated ensembles (2018)/Patricia Barber - Higher (2019) [FLAC]/08. Higher.flac
Track gain : 3.24 dB
Peak : 0.647003
CRC32 hash (test run) : E55F4FCC
CRC32 hash : E55F4FCC
CRC32 hash (skip zero) : DB6EF8F4
AccurateRip v1 signature : 5B87B8AA
AccurateRip v2 signature : 00DCE45F
->Track not present in AccurateRip database.
Statistics
Read error : 0
Jitter error (maybe fixed) : 0
Retry sector count : 0
Damaged sector count : 0
Track 09
Filename : /Users/rips/Art Ensemble of Chicago and associated ensembles (2018)/Patricia Barber - Higher (2019) [FLAC]/09. Early Autumn.flac
Track gain : 3.03 dB
Peak : 0.833099
CRC32 hash (test run) : 3532DC5E
CRC32 hash : 3532DC5E
CRC32 hash (skip zero) : C8F2237C
AccurateRip v1 signature : 808A69AF
AccurateRip v2 signature : 5F7AA177
->Track not present in AccurateRip database.
Statistics
Read error : 0
Jitter error (maybe fixed) : 0
Retry sector count : 0
Damaged sector count : 0
Track 10
Filename : /Users/rips/Art Ensemble of Chicago and associated ensembles (2018)/Patricia Barber - Higher (2019) [FLAC]/10. In Your Own Sweet Way.flac
Track gain : -2.79 dB
Peak : 0.993378
CRC32 hash (test run) : 77EFF4AD
CRC32 hash : 77EFF4AD
CRC32 hash (skip zero) : 016A39E3
AccurateRip v1 signature : C9402D73
AccurateRip v2 signature : D592D55F
->Track not present in AccurateRip database.
Statistics
Read error : 0
Jitter error (maybe fixed) : 0
Retry sector count : 0
Damaged sector count : 0
Track 11
Filename : /Users/rips/Art Ensemble of Chicago and associated ensembles (2018)/Patricia Barber - Higher (2019) [FLAC]/11. Secret Love.flac
Track gain : -2.79 dB
Peak : 0.991608
CRC32 hash (test run) : AED61E92
CRC32 hash : AED61E92
CRC32 hash (skip zero) : 81F139E9
AccurateRip v1 signature : D1C9EB1F
AccurateRip v2 signature : 1D41F44D
->Track not present in AccurateRip database.
Statistics
Read error : 0
Jitter error (maybe fixed) : 0
Retry sector count : 0
Damaged sector count : 0
Track 12
Filename : /Users/rips/Art Ensemble of Chicago and associated ensembles (2018)/Patricia Barber - Higher (2019) [FLAC]/12. The Opera Song with Katherine Werbiansky.flac
Track gain : -0.04 dB
Peak : 0.988770
CRC32 hash (test run) : 354148BF
CRC32 hash : 354148BF
CRC32 hash (skip zero) : 4F3066B0
AccurateRip v1 signature : C10FE6AE
AccurateRip v2 signature : 708A10A1
->Track not present in AccurateRip database.
Statistics
Read error : 0
Jitter error (maybe fixed) : 0
Retry sector count : 1
Damaged sector count : 0
No errors occurred
End of status report
-----BEGIN XLD SIGNATURE-----
qa941u3.gRRK7iMRel4AfCTKLYlMPsB.8YRS6fSi6.XECcinO8oXt_7LdCfHNrmASJLi9uc1qF6UQTDcKbbdM75uB3S6_vePJuvT3HO
-----END XLD SIGNATURE-----
Содержание индексной карты (.CUE)
TITLE "Higher"
PERFORMER "Patricia Barber"
REM GENRE "Jazz"
REM DATE "2019"
REM DISCID BB0CF80C
REM REPLAYGAIN_ALBUM_GAIN 0.04 dB
REM REPLAYGAIN_ALBUM_PEAK 0.993378
FILE "01 - Muse.flac" WAVE
TRACK 01 AUDIO
TITLE "Muse"
ISRC QZGDQ1900001
REM REPLAYGAIN_TRACK_GAIN 4.56 dB
REM REPLAYGAIN_TRACK_PEAK 0.835693
INDEX 01 00:00:00
FILE "02 - Surrender.flac" WAVE
TRACK 02 AUDIO
TITLE "Surrender"
ISRC QZGDQ1900002
REM REPLAYGAIN_TRACK_GAIN 2.45 dB
REM REPLAYGAIN_TRACK_PEAK 0.887421
INDEX 01 00:00:00
FILE "03 - Pallid Angel.flac" WAVE
TRACK 03 AUDIO
TITLE "Pallid Angel"
ISRC QZGDQ1900003
REM REPLAYGAIN_TRACK_GAIN -0.03 dB
REM REPLAYGAIN_TRACK_PEAK 0.988464
INDEX 01 00:00:00
FILE "04 - The Opera Song.flac" WAVE
TRACK 04 AUDIO
TITLE "The Opera Song"
ISRC QZGDQ1900004
REM REPLAYGAIN_TRACK_GAIN -0.50 dB
REM REPLAYGAIN_TRACK_PEAK 0.991730
INDEX 01 00:00:00
FILE "05 - High Summer Season.flac" WAVE
TRACK 05 AUDIO
TITLE "High Summer Season"
ISRC QZGDQ1900005
REM REPLAYGAIN_TRACK_GAIN 0.73 dB
REM REPLAYGAIN_TRACK_PEAK 0.988983
INDEX 01 00:00:00
FILE "06 - The Albatross.flac" WAVE
TRACK 06 AUDIO
TITLE "The Albatross"
ISRC QZGDQ1900006
REM REPLAYGAIN_TRACK_GAIN -1.16 dB
REM REPLAYGAIN_TRACK_PEAK 0.989868
INDEX 01 00:00:00
FILE "07 - Voyager.flac" WAVE
TRACK 07 AUDIO
TITLE "Voyager"
ISRC QZGDQ1900007
REM REPLAYGAIN_TRACK_GAIN 3.35 dB
REM REPLAYGAIN_TRACK_PEAK 0.988892
INDEX 01 00:00:00
FILE "08 - Higher.flac" WAVE
TRACK 08 AUDIO
TITLE "Higher"
ISRC QZGDQ1900008
REM REPLAYGAIN_TRACK_GAIN 3.24 dB
REM REPLAYGAIN_TRACK_PEAK 0.647003
INDEX 01 00:00:00
FILE "09 - Early Autumn.flac" WAVE
TRACK 09 AUDIO
TITLE "Early Autumn"
ISRC QZGDQ1900009
REM REPLAYGAIN_TRACK_GAIN 3.03 dB
REM REPLAYGAIN_TRACK_PEAK 0.833099
INDEX 01 00:00:00
FILE "10 - In Your Own Sweet Way.flac" WAVE
TRACK 10 AUDIO
TITLE "In Your Own Sweet Way"
ISRC QZGDQ1900010
REM REPLAYGAIN_TRACK_GAIN -2.79 dB
REM REPLAYGAIN_TRACK_PEAK 0.993378
INDEX 01 00:00:00
FILE "11 - Secret Love.flac" WAVE
TRACK 11 AUDIO
TITLE "Secret Love"
ISRC QZGDQ1900011
REM REPLAYGAIN_TRACK_GAIN -2.79 dB
REM REPLAYGAIN_TRACK_PEAK 0.991608
INDEX 01 00:00:00
FILE "12 - The Opera Song with Katherine Werbiansky.flac" WAVE
TRACK 12 AUDIO
TITLE "The Opera Song with Katherine Werbiansky"
ISRC QZGDQ1900012
REM REPLAYGAIN_TRACK_GAIN -0.04 dB
REM REPLAYGAIN_TRACK_PEAK 0.988770
INDEX 01 00:00:00
Об альбоме (сборнике)
На протяжении всей моей карьеры в качестве певицы / пианиста / автора песен я раздвигала границы написания песен. Недавно я начала писать песни, которые сочетают лирическую поэзию с богатым гармоническим языком, опираясь на классическую музыку, а также на ограниченную систему гармонии в джазе и классической американской песне. Шуламит Ран, композитор, друг и наставник, помог мне научиться обращаться к безграничному гармоническому спектру. Этот альбом включает в себя «Angels, Birds и I…», новый цикл песни, в котором описывается это музыкальное приключение, раздвигающее границы моего написания песен до художественной песни. Я рада сообщить, что эти песни исполняют как классические, так и джазовые певцы.
В 2015 году мне выпала честь сыграть «Ангелы, птицы и я ...» вместе с другими моими песнями в чикагском театре Харриса с несравненной Рене Флеминг. Мы вместе гастролировали мои песни на концертах в Нью-Йорке и Вашингтоне, а в 2016 году Рене пела их на концерте в Карнеги-холл. Ее исполнение «Higher», песни, которую я написала для своей матери, в аншлаговом Центре исполнительских искусств им. Краннерта на 4 152 места в Шампейн-Урбане, было подарком, который она дала мне, я никогда не забуду.
В 2016 году Августа Рид Томас и Фестиваль новой музыки Ear Taxi попросили меня открыть фестиваль этими песнями. Я была удостоена этой чести. Песни одновременно «современны» и обязаны традиционному джазу и классической гармонии - художественным песням, которые уникальны для моего синтеза звучности и форм и предлагают новый пейзаж для певцов и инструменталистов.
В дополнение к «Ангелам, птицам и мне…», этот альбом будет включать в себя некоторые инструменталы и каверы, просто для удовольствия. Мы также надеемся найти однажды оперное сопрано для пения одной из художественных песен, для моего удовольствия от прослушивания и вашего, конечно!
-- Патриция Барбер
Download
Для скачивания .torrent файлов необходима регистрация
Сайт не распространяет и не хранит электронные версии произведений, а лишь предоставляет доступ к создаваемому пользователями каталогу ссылок на торрент-файлы, которые содержат только списки хеш-сумм
[Профиль]  [ЛС] 

Spartak802

Стаж: 2 года 4 месяца

Сообщений: 44


Spartak802 · 09-Апр-19 13:47 (спустя 13 часов)

За Патрицию всегда спасибо, тем более за свежую...
[Профиль]  [ЛС] 

Jazzerovsky

Стаж: 4 года 9 месяцев

Сообщений: 2


Jazzerovsky · 09-Апр-19 19:30 (спустя 5 часов)

Spartak802 писал(а):
77178445За Патрицию всегда спасибо, тем более за свежую...
Hvala .
[Профиль]  [ЛС] 
 
Ответить
Loading...
Error