Длинная рука закона 3 / Long Arm of the Law 3 / Saang gong kei bing 3 (Майкл Мак / Michael Mak) [1989, Гонконг, Боевик, триллер, мелодрама, криминал, DVD5 (custom)] VO (В. Береговых) + Sub Zho + Original Zho

Страницы:  1
Ответить
Автор
Сообщение

vitolinform

Стаж: 1 год 6 месяцев

Сообщений: 561


vitolinform · 23-Май-19 12:52 (2 месяца 27 дней назад, ред. 23-Май-19 23:44)

Длинная рука закона 3 / Long Arm of the Law 3 / Saang gong kei bing 3
Страна: Гонконг
Студия: Johnny Mak Productions, Movie Impact
Жанр: Боевик, триллер, мелодрама, криминал
Год выпуска: 1989
Продолжительность: 01:47:04
Перевод: Одноголосый закадровый | Виктор Береговых
Субтитры: Китайские
Оригинальная аудиодорожка: Китайский
Режиссер: Майкл Мак / Michael Mak
В ролях:
Энди Лау, Элизабет Ли, Сиу Чунг Мок, Кен Бойл, Стивен Чан Так Гвон, Чи Джин Чунг, Чин Куй Чунг, Sek-Ming Gan, Йи-Сан Хан,
Ngan Kei
Описание:
На материке Кона (Энди Лау) обвинили в преступлении, за которое полагается смертная казнь, но ему удается сбежать прямо во время расстрела. Убежище Кон находит в Гонконге, где его берет под свое крыло гангстер Лён. Лён выводит нашего героя на грабителя Чёка (Стивен Чан), которому как раз нужны люди для очередного налета, а чтобы Кон не упирался, его шантажируют Мун (Элизабет Ли) – его возлюбленной, с которой Кон познакомился, пока добирался из Китая в Гонконг. Если он будет артачиться, из Мун сделают проститутку.
| IMDb | КиноПоиск | Скачать сэмпл |
Диск найден в сети (Азияклуб asiandvdclub.org). К нему добавлена русская звуковая дорожка с переводом и озвучиванием Виктора Береговых. Используемые программы: PgcDemux, MuxMan0.15R, VobBlanker
Дополнительные материалы на DVD: - Трейлер
Меню: Есть, статичное, озвученное, на китайском и английском языке
Тип релиза: DVD5 (custom)
Контейнер: DVD-Video
Видео: NTSC 16:9 (720x480) VBR Auto Letterboxed, ~ 5724.63 kbps, fps 29.970
Аудио 1: Russian (Dolby AC3, 2 ch) | AC3, 2/0 (L,R) ch, 192 kbps, 48.0 kHz, 16 bits | Одноголосый закадровый (Виктор Береговых)
Аудио 2: Chinese (Dolby AC3, 6 ch) | AC3, 3/2 (L,C,R,SL,SR)+LFE ch, 448 kbps, 48.0 kHz, 16 bits | Китайский
Формат субтитров: prerendered (DVD/IDX+SUB)
MediaInfo
Title: Dlinnaya.ruka.zakona.3.1989.DVD5
Size: 4.36 Gb ( 4 572 888,00 KBytes ) - DVD-5
Enabled regions: 1, 2, 3, 4, 5, 6, 7, 8
VTS_01 :
Play Length: 01:47:04
Video: NTSC 16:9 (720x480) VBR, Auto Letterboxed
Audio:
Russian, AC3, 2/0 (L,R) ch, 192 kbps, Delay 0 mSec
Chinese, AC3, 3/2 (L,C,R,SL,SR)+LFE ch, 448 kbps, Delay 0 mSec
Subtitles:
Chinese
Chinese
English
VTS_02 :
Play Length: 00:02:00
Video: NTSC 16:9 (720x480) VBR, Auto Letterboxed
Audio:
Chinese, AC3, 2/0 (L,R) ch, 192 kbps, Delay 0 mSec
VTS_03 :
Play Length: 00:00:12
Video: NTSC 4:3 (720x480) VBR
Audio:
Not specified, AC3, 2/0 (L,R) ch, 448 kbps, Delay 0 mSec
VTS_04 :
Play Length: 00:00:16
Video: NTSC 4:3 (720x480) VBR
Audio:
Not specified, AC3, 3/2 (L,C,R,SL,SR)+LFE ch, 448 kbps, Delay 0 mSec
VTS_05 :
Play Length: 00:00:31
Video: NTSC 16:9 (720x480) VBR, Auto Letterboxed
Audio:
Not specified, AC3, 3/2 (L,C,R,SL,SR)+LFE ch, 448 kbps, Delay 0 mSec
VTS_06 :
Play Length: 00:00:10
Video: NTSC 16:9 (720x480) VBR, Auto Letterboxed
Audio:
Not specified, AC3, 2/0 (L,R) ch, 192 kbps, Delay 0 mSec
======================================================
VTS_01_3.VOB
Формат : MPEG-PS
Размер файла : 1024 Мбайт
Продолжительность : 25 м. 12 с.
Общий поток : 5679 Кбит/сек
Видео
Идентификатор : 224 (0xE0)
Формат : MPEG Video
Версия формата : Version 2
Профиль формата : Main@Main
Настройки формата : CustomMatrix / BVOP
Параметр BVOP формата : Да
Параметр матрицы формата : Выборочная
Параметр GOP формата : M=3, N=15
Структура изображения : Frame
Продолжительность : 25 м. 12 с.
Вид битрейта : Постоянный
Битрейт : 4926 Кбит/сек
Максимальный битрейт : 8000 Кбит/сек
Ширина : 720 пикселей
Высота : 480 пикселей
Соотношение сторон : 16:9
Частота кадров : 29,970 (30000/1001) кадров/сек
Стандарт вещания : NTSC
Цветовое пространство : YUV
Субдискретизация насыщенности : 4:2:0
Битовая глубина : 8 бит
Тип развёртки : Чересстрочная
Порядок развёртки : Верхнее поле первое
Метод сжатия : С потерями
Бит/(Пиксели*Кадры) : 0.476
Временной код первого кадра : 10:50:44:06
Оригинал временного кода : Group of pictures header
GOP, открыто/закрыто : Закрыто
Размер потока : 888 Мбайт (87%)
Аудио #1
Идентификатор : 189 (0xBD)-128 (0x80)
Формат : AC-3
Формат/Информация : Audio Coding 3
Режим смешивания : DVD-Video
Продолжительность : 25 м. 12 с.
Вид битрейта : Постоянный
Битрейт : 192 Кбит/сек
Каналы : 2 канала
Расположение каналов : Front: L R
Частота : 48,0 КГц
Частота кадров : 31,250 кадров/сек (1536 SPF)
Битовая глубина : 16 бит
Метод сжатия : С потерями
Задержка видео : -204 мс.
Размер потока : 34,6 Мбайт (3%)
ServiceKind/String : Complete Main
Аудио #2
Идентификатор : 189 (0xBD)-129 (0x81)
Формат : AC-3
Формат/Информация : Audio Coding 3
Режим смешивания : DVD-Video
Продолжительность : 25 м. 12 с.
Вид битрейта : Постоянный
Битрейт : 448 Кбит/сек
Каналы : 6 каналов
Расположение каналов : Front: L C R, Side: L R, LFE
Частота : 48,0 КГц
Частота кадров : 31,250 кадров/сек (1536 SPF)
Битовая глубина : 16 бит
Метод сжатия : С потерями
Задержка видео : -204 мс.
Размер потока : 80,8 Мбайт (8%)
ServiceKind/String : Complete Main
Текст #1
Идентификатор : 189 (0xBD)-32 (0x20)
Формат : RLE
Формат/Информация : Run-length encoding
Режим смешивания : DVD-Video
Продолжительность : 25 м. 5 с.
Задержка видео : 767 мс.
Текст #2
Идентификатор : 189 (0xBD)-33 (0x21)
Формат : RLE
Формат/Информация : Run-length encoding
Режим смешивания : DVD-Video
Продолжительность : 25 м. 5 с.
Задержка видео : 767 мс.
Текст #3
Идентификатор : 189 (0xBD)-34 (0x22)
Формат : RLE
Формат/Информация : Run-length encoding
Режим смешивания : DVD-Video
Продолжительность : 25 м. 5 с.
Задержка видео : 767 мс.
Меню
Скриншоты меню
Скриншоты
Скриншоты доп. материалов
Download
Сайт не распространяет и не хранит электронные версии произведений, а лишь предоставляет доступ к создаваемому пользователями каталогу ссылок на торрент-файлы, которые содержат только списки хеш-сумм
Как скачивать? (для скачивания .torrent файлов необходима регистрация)
[Профиль]  [ЛС] 

perrelcin

Moderator

Стаж: 11 лет 2 месяца

Сообщений: 2907

perrelcin · 23-Май-19 18:30 (спустя 5 часов)

vitolinform
Что то в сэмпле нет английских субтитров.
[Профиль]  [ЛС] 

alazar5

Стаж: 5 лет 3 месяца

Сообщений: 107

alazar5 · 23-Май-19 21:19 (спустя 2 часа 49 мин.)

А что со второй частью ?
[Профиль]  [ЛС] 

vitolinform

Стаж: 1 год 6 месяцев

Сообщений: 561


vitolinform · 23-Май-19 23:51 (спустя 2 часа 32 мин., ред. 23-Май-19 23:51)

alazar5 писал(а):
77420979А что со второй частью ?
У меня ее пока нет
Как появится, конечно же выложу
perrelcin писал(а):
77419926vitolinform
Что то в сэмпле нет английских субтитров.
Да действительно, английских субтитров нет. И DVD весь просмотрел, только китайские
Для надежности извлек даже английские субтитры с DVD, оказалось что это еще одни китайские субтитры.
Китайцы в своем амплуа
Название темы и в описании раздачи подправил.
[Профиль]  [ЛС] 

bot · 24-Май-19 17:59 (спустя 18 часов)

Тема была перенесена из форума DVD Video в форум Азиатские фильмы (DVD Video)
perrelcin
 

vitolinform

Стаж: 1 год 6 месяцев

Сообщений: 561


vitolinform · 26-Май-19 14:26 (спустя 2 дня 14 часов)

alazar5 писал(а):
77420979А что со второй частью ?
Залил вторую часть в BDRip 720p
https://rutrckr.com/forum/viewtopic.php?t=5736627
[Профиль]  [ЛС] 

KalBreg96

Стаж: 5 лет 7 месяцев

Сообщений: 49

KalBreg96 · 19-Июл-19 16:11 (спустя 1 месяц 24 дня)

У меня есть DVD второй части от Fortune Star, могу загрузить на MEGA.
[Профиль]  [ЛС] 
 
Ответить
Loading...
Error