(Vocal Jazz, Easy Listening) [WEB] Christer Sjögren (Christer Sjogren) - Sjunger Sinatra - 2014, FLAC (tracks), lossless

Страницы:  1

Ответить
Автор
Сообщение

j7n

Стаж: 12 лет 4 месяца

Сообщений: 311

j7n · 11-Июн-19 22:21 (1 месяц 9 дней назад)

Christer Sjögren / Sjunger Sinatra
Жанр: Vocal Jazz, Easy Listening
Носитель: WEB
Год издания: 2014
Издатель (лейбл): Parlophone Sweden
Страна исполнителя (группы): Sweden
Аудиокодек: FLAC (*.flac)
Тип рипа: tracks
Продолжительность: 44:47
Источник: Deezloader
Наличие сканов в содержимом раздачи: нет
Треклист:
1. For Once in My Life (2:39)
2. Strangers in the Night (2:52)
3. Fly Me to the Moon (2:35)
4. Smile (2:53)
5. Summer Wind (3:07)
6. The Lady Is a Tramp (2:59)
7. As Time Goes By (3:28)
8. Something (4:03)
9. New York, New York (3:23)
10. Nancy (3:27)
11. I've Got You Under My Skin (4:12)
12. It Was a Very Good Year (4:16)
13. My Way (4:47)
Лог проверки качества
AUDIOCHECKER v2.0 beta (build 457) - by Dester - opdester@freemail.hu
~~~~~~~~~~~~~~~~~~~~~~~~~~~~~~~~~~
-=== DO NOT EDIT THIS FILE! ===-
Path: ...\Christer Sjogren - [2014] Sjunger Sinatra
01 -=- 01 - For Once in My Life.flac -=- CDDA (100%)
02 -=- 02 - Strangers in the Night.flac -=- CDDA (100%)
03 -=- 03 - Fly Me to the Moon.flac -=- CDDA (100%)
04 -=- 04 - Smile.flac -=- CDDA (100%)
05 -=- 05 - Summer Wind.flac -=- CDDA (100%)
06 -=- 06 - The Lady Is a Tramp.flac -=- CDDA (100%)
07 -=- 07 - As Time Goes By.flac -=- CDDA (100%)
08 -=- 08 - Something.flac -=- CDDA (100%)
09 -=- 09 - New York, New York.flac -=- CDDA (100%)
10 -=- 10 - Nancy.flac -=- CDDA (99%)
11 -=- 11 - I've Got You Under My Skin.flac -=- CDDA (100%)
12 -=- 12 - It Was a Very Good Year.flac -=- CDDA (100%)
13 -=- 13 - My Way.flac -=- CDDA (99%)
Summary 99.85% CDDA
128527188
Динамический диапазон: DR12
foobar2000 1.0.3 / Dynamic Range Meter 1.1.1
log date: 2019-06-11 21:23:41
--------------------------------------------------------------------------------
Analyzed: Christer Sjögren / Sjunger Sinatra
--------------------------------------------------------------------------------
DR Peak RMS Duration Track
--------------------------------------------------------------------------------
DR12 -0.21 dB -14.22 dB 2:39 01-For Once in My Life
DR13 -0.29 dB -14.62 dB 2:52 02-Strangers in the Night
DR12 -0.24 dB -14.53 dB 2:35 03-Fly Me to the Moon
DR12 -0.27 dB -14.50 dB 2:53 04-Smile
DR12 -0.28 dB -15.42 dB 3:07 05-Summer Wind
DR12 0.00 dB -14.14 dB 3:00 06-The Lady Is a Tramp
DR12 0.00 dB -14.71 dB 3:29 07-As Time Goes By
DR11 -0.26 dB -13.85 dB 4:04 08-Something
DR11 0.00 dB -13.75 dB 3:23 09-New York, New York
DR12 -0.33 dB -14.11 dB 3:28 10-Nancy
DR12 0.00 dB -14.71 dB 4:13 11-I've Got You Under My Skin
DR12 -0.90 dB -16.24 dB 4:17 12-It Was a Very Good Year
DR11 -0.26 dB -14.69 dB 4:47 13-My Way
--------------------------------------------------------------------------------
Number of tracks: 13
Official DR value: DR12
Samplerate: 44100 Hz
Channels: 2
Bits per sample: 16
Bitrate: 764 kbps
Codec: FLAC
================================================================================
Download
Для скачивания .torrent файлов необходима регистрация
Сайт не распространяет и не хранит электронные версии произведений, а лишь предоставляет доступ к создаваемому пользователями каталогу ссылок на торрент-файлы, которые содержат только списки хеш-сумм
[Профиль]  [ЛС] 

wurensh

Moderator

Стаж: 9 лет 6 месяцев

Сообщений: 6132

wurensh · 15-Июн-19 16:15 (спустя 3 дня)

j7n писал(а):
77516220Носитель: WEB
...
Источник: Deezloader
# сомнительно
[Профиль]  [ЛС] 
 
Ответить
Loading...
Error