Призрак-стукач / The Ghost Informer / Gui xian ren (Лау Хун-Чюн / Lau Hung-Chuen) [1984, Гонконг, мистика, DVD9(Custom)] VO (Хоррор Мейкер) + Sub Eng + Original Zho

Страницы:  1
Ответить
Автор
Сообщение

tong777

Top Seed 03* 160r

Стаж: 11 лет 9 месяцев

Сообщений: 2420

tong777 · 15-Июл-19 23:23 (1 месяц 3 дня назад)

Призрак-стукач / The Ghost Informer / Gui xian ren
Страна: Гонконг
Жанр: мистика
Год выпуска: 1984
Продолжительность: 01:25:00
Перевод: Одноголосый закадровый Хоррор Мейкер
Субтитры: английские встроенные
Оригинальная аудиодорожка: китайский
Режиссер: Лау Хун-Чюн / Lau Hung-Chuen
В ролях: Тони Леунг Ка-Фай, Джойс Нгай, Дэвид Ву, Тай Бо, Чарли Чо
Описание: Бездельник по прозвищу Огненный Единорог хочет найти непыльную денежную работенку. Случайно ему на глаза попадается объявление о наборе в штат полицейских информаторов. Единорога закрепляют за инспектором Тангом, которому он продолжает служить даже в виде призрака, после того как гибнет от рук бандита.
Меню: Статичное русское
Сэмпл: http://multi-up.com/1236826
Тип релиза: DVD9(Custom)
Контейнер: DVD-Video
Видео: NTSC 4:3 (720x480) VBR
Аудио: Russian (Dolby AC3, 2 ch) 192 Кбит/сек
Аудио 2: Cantonese (Dolby AC3, 2 ch) 192 Кбит/сек
Формат субтитров: hardsub (неотключаемые)
MediaInfo
Информация о проигрывателе:
Код зоны проигрывателя: 5
Текущий привод: E:
Код зоны диска: 1, 2, 3, 4, 5, 6, All
Полное имя : D:\КИНО РУТР\ДЛЯ рутрекера\Призрастукач\VIDEO_TS\VTS_01_1.VOB
Формат : MPEG-PS
Размер файла : 1000 Мбайт
Продолжительность : 14 м.
Режим общего битрейта : Переменный
Общий поток : 9554 Кбит/сек
Библиотека кодирования : (dvd5: Dec 5 2013)
Видео
Идентификатор : 224 (0xE0)
Формат : MPEG Video
Версия формата : Version 2
Профиль формата : Main@Main
Параметр BVOP формата : Да
Параметр матрицы формата : По умолчанию
Параметр GOP формата : M=3, N=15
Продолжительность : 14 м.
Вид битрейта : Переменный
Битрейт : 9000 Кбит/сек
Ширина : 720 пикселей
Высота : 480 пикселей
Соотношение сторон : 4:3
Частота кадров : 29,970 кадров/сек
Стандарт вещания : NTSC
Цветовое пространство : YUV
Субдискретизация насыщенности : 4:2:0
Битовая глубина : 8 бит
Тип развёртки : Чересстрочная
Порядок развёртки : Верхнее поле первое
Метод сжатия : С потерями
Бит/(Пиксели*Кадры) : 0.869
Временной код первого кадра : 00:00:00:00
Оригинал временного кода : Group of pictures header
Размер потока : 940 Мбайт (94%)
Закодированный размер потока оригинала : (dvd5: Dec 5 2013)
Библиотека кодирования : (dvd5: Dec 5 2013)
Основные цвета : BT.601 NTSC
Характеристики трансфера : BT.601
Коэффициенты матрицы : BT.601
Аудио #1
Идентификатор : 189 (0xBD)-128 (0x80)
Формат : AC-3
Формат/Информация : Audio Coding 3
Расширение режима : CM (complete main)
Параметр Endianness формата : Big
Режим смешивания : DVD-Video
Продолжительность : 14 м.
Вид битрейта : Постоянный
Битрейт : 192 Кбит/сек
Каналы : 2 канала
Расположение каналов : Front: L R
Частота : 48,0 КГц
Битовая глубина : 16 бит
Метод сжатия : С потерями
Задержка видео : -66 мс.
Размер потока : 20,1 Мбайт (2%)
Аудио #2
Идентификатор : 189 (0xBD)-129 (0x81)
Формат : AC-3
Формат/Информация : Audio Coding 3
Расширение режима : CM (complete main)
Параметр Endianness формата : Big
Режим смешивания : DVD-Video
Продолжительность : 14 м.
Вид битрейта : Постоянный
Битрейт : 192 Кбит/сек
Каналы : 2 канала
Расположение каналов : Front: L R
Частота : 48,0 КГц
Битовая глубина : 16 бит
Метод сжатия : С потерями
Задержка видео : -66 мс.
Размер потока : 20,1 Мбайт (2%)
Скриншоты меню
Скриншоты
Download
Сайт не распространяет и не хранит электронные версии произведений, а лишь предоставляет доступ к создаваемому пользователями каталогу ссылок на торрент-файлы, которые содержат только списки хеш-сумм
Как скачивать? (для скачивания .torrent файлов необходима регистрация)
[Профиль]  [ЛС] 

perrelcin

Moderator

Стаж: 11 лет 2 месяца

Сообщений: 2907

perrelcin · 16-Июл-19 15:06 (спустя 15 часов)

Custom без инф. по сборке
# сомнительно

[Профиль]  [ЛС] 

bot · 16-Июл-19 15:06 (спустя 39 сек.)

Тема была перенесена из форума DVD Video в форум Азиатские фильмы (DVD Video)
perrelcin
 
 
Ответить
Loading...
Error