Смешные времена / Веселые времена / Laughing Times / Hua ji shi dai (Джон Ву / John Woo) [1981, Гонконг, Тайвань, Боевик, драма, комедия, семейный, DVD5 (custom)] VO (В. Береговых) + Original Zho

Страницы:  1
Ответить
Автор
Сообщение

vitolinform

Стаж: 1 год 6 месяцев

Сообщений: 561


vitolinform · 18-Июл-19 12:20 (1 месяц назад)

Смешные времена / Веселые времена / Laughing Times / Hua ji shi dai
Страна: Гонконг, Тайвань
Студия: Cinema City Film Productions
Жанр: Боевик, драма, комедия, семейный
Год выпуска: 1981
Продолжительность: 01:34:08
Перевод: Одноголосый закадровый | Виктор Береговых
Субтитры: нет
Оригинальная аудиодорожка: китайский
Режиссер: Джон Ву / John Woo
В ролях:
Карл Мака, Дин Шек, Вай Вон, Брюс Чан, Чиу Чи-Лин, Фун Кинг-Ман, Пак-Квон Хо, Юн Хо, Лау Нга Лаи
Описание:
Неунывающий бродяга (Дин Шек) в своих скитаниях встречает маленького мальчика, вместе с которым быстро влипает в историю с наркотиками, после которой им на хвост садится вся полиция города. Единственный выход – это вывести копов на рыбешку покрупнее, которой является нарко- и работорговец в исполнении Карла Мака.
| IMDb | КиноПоиск | Скачать сэмпл |
Диск найден в сети (Азияклуб asiandvdclub). К нему добавлена русская звуковая дорожка с переводом и озвучиванием Виктора Береговых. Используемые программы: PgcDemux, MuxMan0.15R, VobBlanker
Заказ перевода: vitolinform
Бонусы:
- Трейлер;
- Фотогаллерея
Меню: Есть, статичное, озвученное, на китайском и английском языках
Тип релиза: DVD5 (custom)
Контейнер: DVD-Video
Видео: NTSC 16:9 (720x480) VBR Auto Letterboxed, ~6144.90 kbps, fps 29.970
Аудио 1: Russian (Dolby AC3, 2 ch) | AC3, 2/0 (L,R) ch, 192 kbps, 48.0 kHz, 16 bits | Одноголосый закадровый (Виктор Береговых)
Аудио 2: Chinese (Dolby AC3, 2 ch) | AC3, 2/0 (L,R) ch, 192 kbps, 48.0 kHz, 16 bits | Китайский
MediaInfo
Title: Smeshnyie.Vremena.1980.DVD5
Size: 4.27 Gb ( 4 477 068,00 KBytes ) - DVD-5
Enabled regions: 1, 2, 3, 4, 5, 6, 7, 8
VTS_01 :
Play Length: 01:34:08
Video: NTSC 16:9 (720x480) VBR, Auto Letterboxed
Audio:
Russian, AC3, 2/0 (L,R) ch, 192 kbps, Delay 0 mSec
Chinese, AC3, 2/0 (L,R) ch, 192 kbps, Delay 0 mSec
VTS_02 :
Play Length: 00:00:10+00:00:10+00:00:10+{00:00:10}+00:00:10
Video: NTSC 16:9 (720x480) VBR, Auto Letterboxed
Audio:
Not specified, AC3, 2/0 (L,R) ch, 192 kbps, Delay 0 mSec
VTS_03 :
Play Length: 00:00:13
Video: NTSC 4:3 (720x480) VBR
Audio:
Not specified, AC3, 2/0 (L,R) ch, 448 kbps, Delay 0 mSec
VTS_04 :
Play Length: 00:00:32+{00:00:32}
Video: NTSC 16:9 (720x480) VBR, Auto Letterboxed
Audio:
Not specified, AC3, 3/2 (L,C,R,SL,SR)+LFE ch, 448 kbps, Delay 0 mSec
VTS_05 :
Play Length: 00:04:11
Video: NTSC 16:9 (720x480) VBR, Auto Letterboxed
Audio:
Chinese, AC3, 2/0 (L,R) ch, 192 kbps, Delay 0 mSec
====================================================
Smeshnyie.Vremena.1980.DVD5\VIDEO_TS\VTS_01_2.VOB
Формат : MPEG-PS
Размер файла : 1024 Мбайт
Продолжительность : 23 м. 32 с.
Режим общего битрейта : Переменный
Общий поток : 6082 Кбит/сек
Видео
Идентификатор : 224 (0xE0)
Формат : MPEG Video
Версия формата : Version 2
Профиль формата : Main@Main
Настройки формата : CustomMatrix / BVOP
Параметр BVOP формата : Да
Параметр матрицы формата : Выборочная
Параметр GOP формата : M=3, N=16
Структура изображения : Frame
Продолжительность : 23 м. 32 с.
Вид битрейта : Переменный
Битрейт : 5577 Кбит/сек
Максимальный битрейт : 9200 Кбит/сек
Ширина : 720 пикселей
Высота : 480 пикселей
Соотношение сторон : 16:9
Частота кадров : 29,970 (30000/1001) кадров/сек
Стандарт вещания : NTSC
Цветовое пространство : YUV
Субдискретизация насыщенности : 4:2:0
Битовая глубина : 8 бит
Тип развёртки : Чересстрочная
Порядок развёртки : Верхнее поле первое
Метод сжатия : С потерями
Бит/(Пиксели*Кадры) : 0.538
Временной код первого кадра : 00:22:53:06
Оригинал временного кода : Group of pictures header
GOP, открыто/закрыто : Закрыто
Размер потока : 939 Мбайт (92%)
Основные цвета : BT.601 NTSC
Характеристики трансфера : BT.601
Коэффициенты матрицы : BT.601
Аудио #1
Идентификатор : 189 (0xBD)-128 (0x80)
Формат : AC-3
Формат/Информация : Audio Coding 3
Коммерческое название : Dolby Digital
Режим смешивания : DVD-Video
Продолжительность : 23 м. 32 с.
Вид битрейта : Постоянный
Битрейт : 192 Кбит/сек
Каналы : 2 канала
ChannelLayout : L R
Частота : 48,0 КГц
Частота кадров : 31,250 кадров/сек (1536 SPF)
Битовая глубина : 16 бит
Метод сжатия : С потерями
Задержка видео : -333 мс.
Размер потока : 32,3 Мбайт (3%)
ServiceKind/String : Complete Main
Аудио #2
Идентификатор : 189 (0xBD)-129 (0x81)
Формат : AC-3
Формат/Информация : Audio Coding 3
Коммерческое название : Dolby Digital
Режим смешивания : DVD-Video
Продолжительность : 23 м. 32 с.
Вид битрейта : Постоянный
Битрейт : 192 Кбит/сек
Каналы : 2 канала
ChannelLayout : L R
Частота : 48,0 КГц
Частота кадров : 31,250 кадров/сек (1536 SPF)
Битовая глубина : 16 бит
Метод сжатия : С потерями
Задержка видео : -333 мс.
Размер потока : 32,3 Мбайт (3%)
ServiceKind/String : Complete Main
Меню
Скриншоты меню
Скриншоты
Скриншоты доп. материалов
Download
Сайт не распространяет и не хранит электронные версии произведений, а лишь предоставляет доступ к создаваемому пользователями каталогу ссылок на торрент-файлы, которые содержат только списки хеш-сумм
Как скачивать? (для скачивания .torrent файлов необходима регистрация)
[Профиль]  [ЛС] 

bot · 19-Июл-19 08:51 (спустя 20 часов)

Тема была перенесена из форума DVD Video в форум Азиатские фильмы (DVD Video)
perrelcin
 

DonSerjio

Top Bonus 04* 3TB

Стаж: 10 лет 8 месяцев

Сообщений: 4566

DonSerjio · 28-Июл-19 21:24 (спустя 10 дней)

Спасибо!
Забавная пародия на фильмы Чарли Чаплина. Не ожидал такого от китайцев, тем более от Джона Ву. В коллекцию.
[Профиль]  [ЛС] 
 
Ответить
Loading...
Error