Молодая мстительница / The Young Avengeress / Shi san mei (Вонг Чеук-Хон / Cheuk Hon Wong) [1969, Гонконг, Тайвань, Приключения, DVD5 (custom)] VO (В. Береговых) + Sub Eng, Zho + Original Zho

Страницы:  1
Ответить
Автор
Сообщение

vitolinform

Стаж: 1 год 6 месяцев

Сообщений: 561


vitolinform · 19-Июл-19 12:49 (30 дней назад, ред. 19-Июл-19 13:29)

Молодая мстительница / The Young Avengeress / Shi san mei
Страна: Гонконг, Тайвань
Студия: First Films
Жанр: Приключения
Год выпуска: 1969
Продолжительность: 01:36:22
Перевод: Одноголосый закадровый | Виктор Береговых
Субтитры: Английские, китайские
Оригинальная аудиодорожка: китайский
Режиссер: Вонг Чеук-Хон / Cheuk Hon Wong
В ролях:
Тин Ин, Ань Пин, Шам Сют-Чун, Ма Кэй, Хон Сиу, Се Хань, Пай Юй, Нг Кван, Гот Сиу-Бо, Су Чэньпин, У Пиньнань, Фей Ван, У Минь, Юэ Фун, Као Миньлин, Чун Чин-Фун, Кван Нгай, Вонг Фэй
Описание:
Коррумпированный генерал Чи жаждет заполучить в наложницы красавицу Хо Юй Фэн. Он посылает своих людей, но Хо удается бежать. Спустя три года на всю округу гремит имя знаменитой героини Тринадцатой сестры. Генерал Чи по прежнему ищет Хо Юй Фэн и также надеется схватить тринадцатую сестру. Генерал не знает, что Хо и Тринадцатая сестра один и тот же человек. Хо намерена отомстить генералу за смерть своих родителей...(В.Береговых)
| IMDb | Скачать сэмпл |
Диск найден в сети (Азияклуб asiandvdclub). К нему добавлена русская звуковая дорожка с переводом и озвучиванием Виктора Береговых. Используемые программы: PgcDemux, MuxMan0.15R, VobBlanker
Заказ перевода: vitolinform
Бонусы:
- Трейлеры;
- Ремастер видео;
- Веб ссылки
Меню: Есть, статичное, озвученное, на английском языке
Тип релиза: DVD5 (custom)
Контейнер: DVD-Video
Видео: NTSC 4:3 (720x480) VBR, ~6144.90 kbps, fps 29.970
Аудио 1: Russian (Dolby AC3, 2 ch) | AC3, 2/0 (L,R) ch, 192 kbps, 48.0 kHz, 16 bits | Одноголосый закадровый (Виктор Береговых)
Аудио 2: Chinese (Dolby AC3, 2 ch) | AC3, 2/0 (L,R) ch, 192 kbps, 48.0 kHz, 16 bits | Китайский
Формат субтитров: hardsub (неотключаемые)
MediaInfo
Title: Molodaya.Mstitelnica.1969.DVD5
Size: 4.00 Gb ( 4 191 508,00 KBytes ) - DVD-5
Enabled regions: 1, 2, 3, 4, 5, 6, 7, 8
VTS_01 :
Play Length: 00:00:11+{00:00:11}+{00:00:11}
Video: NTSC 4:3 (720x480) VBR
Audio:
English, AC3, 2/0 (L,R) ch, 192 kbps, Delay 0 mSec
VTS_02 :
Play Length: 01:36:22+{01:36:22}+{01:36:22}
Video: NTSC 4:3 (720x480) VBR
Audio:
Russian, AC3, 2/0 (L,R) ch, 192 kbps, Delay 0 mSec
Chinese, AC3, 2/0 (L,R) ch, 192 kbps, Delay 0 mSec
VTS_03 :
Play Length: 00:00:53+{00:00:53}+{00:00:53}
Video: NTSC 4:3 (720x480) VBR
Audio:
English, LPCM, Delay = 0 mSec
VTS_04 :
Play Length: 00:00:47+{00:00:47}+{00:00:47}
Video: NTSC 4:3 (720x480) VBR
Audio:
English, AC3, 2/0 (L,R) ch, 192 kbps, Delay 0 mSec
VTS_05 :
Play Length: 00:04:39+{00:04:39}+{00:04:39}
Video: NTSC 4:3 (720x480) VBR
Audio:
English, AC3, 2/0 (L,R) ch, 192 kbps, Delay 0 mSec
================================================
Molodaya.Mstitelnica.1969.DVD5\VIDEO_TS\VTS_02_2.VOB
Формат : MPEG-PS
Размер файла : 1024 Мбайт
Продолжительность : 26 м. 2 с.
Режим общего битрейта : Переменный
Общий поток : 5496 Кбит/сек
Видео
Идентификатор : 224 (0xE0)
Формат : MPEG Video
Версия формата : Version 2
Профиль формата : Main@Main
Настройки формата : CustomMatrix / BVOP
Параметр BVOP формата : Да
Параметр матрицы формата : Выборочная
Параметр GOP формата : M=3, N=15
Структура изображения : Frame
Продолжительность : 26 м. 2 с.
Вид битрейта : Переменный
Битрейт : 5003 Кбит/сек
Максимальный битрейт : 7500 Кбит/сек
Ширина : 720 пикселей
Высота : 480 пикселей
Соотношение сторон : 4:3
Частота кадров : 29,970 (30000/1001) кадров/сек
Стандарт вещания : NTSC
Цветовое пространство : YUV
Субдискретизация насыщенности : 4:2:0
Битовая глубина : 8 бит
Тип развёртки : Чересстрочная
Порядок развёртки : Нижнее поле первое
Метод сжатия : С потерями
Бит/(Пиксели*Кадры) : 0.483
Временной код первого кадра : 01:26:03;03
Оригинал временного кода : Group of pictures header
GOP, открыто/закрыто : Закрыто
Размер потока : 932 Мбайт (91%)
Основные цвета : BT.601 NTSC
Характеристики трансфера : BT.601
Коэффициенты матрицы : BT.601
Аудио #1
Идентификатор : 189 (0xBD)-128 (0x80)
Формат : AC-3
Формат/Информация : Audio Coding 3
Коммерческое название : Dolby Digital
Режим смешивания : DVD-Video
Продолжительность : 26 м. 2 с.
Вид битрейта : Постоянный
Битрейт : 192 Кбит/сек
Каналы : 2 канала
ChannelLayout : L R
Частота : 48,0 КГц
Частота кадров : 31,250 кадров/сек (1536 SPF)
Битовая глубина : 16 бит
Метод сжатия : С потерями
Задержка видео : -405 мс.
Размер потока : 35,8 Мбайт (3%)
ServiceKind/String : Complete Main
Аудио #2
Идентификатор : 189 (0xBD)-129 (0x81)
Формат : AC-3
Формат/Информация : Audio Coding 3
Коммерческое название : Dolby Digital
Режим смешивания : DVD-Video
Продолжительность : 26 м. 2 с.
Вид битрейта : Постоянный
Битрейт : 192 Кбит/сек
Каналы : 2 канала
ChannelLayout : L R
Частота : 48,0 КГц
Частота кадров : 31,250 кадров/сек (1536 SPF)
Битовая глубина : 16 бит
Метод сжатия : С потерями
Задержка видео : -405 мс.
Размер потока : 35,8 Мбайт (3%)
ServiceKind/String : Complete Main
Меню
Скриншоты меню
Скриншоты
Скриншоты доп. материалов
Download
Сайт не распространяет и не хранит электронные версии произведений, а лишь предоставляет доступ к создаваемому пользователями каталогу ссылок на торрент-файлы, которые содержат только списки хеш-сумм
Как скачивать? (для скачивания .torrent файлов необходима регистрация)
[Профиль]  [ЛС] 

bot · 20-Июл-19 09:10 (спустя 20 часов)

Тема была перенесена из форума DVD Video в форум Азиатские фильмы (DVD Video)
perrelcin
 
 
Ответить
Loading...
Error